↑↓torrent.by
Поиск
Логин:  Регистрация
Пароль:

Lake Street Dive - Good Together [24-bit Hi-Res] (2024) FLAC

download Скачать торрент-файл   magnet Магнитная ссылка Размер: 431.58 MB Добавлен: 2024-06-26 05:00
Пиры будут получены из сети DHT
Последний сидер был замечен 2024-06-27 16:48
Название: Good Together Исполнитель: Lake Street Dive Год: 2024 Жанр: Funk, Soul, Pop, Indie-Pop Издатель (лейбл): Fantasy Продолжительность: 00:36:29 Формат/Кодек: FLAC Тип рипа: Tracks Битрейт аудио: Lossless Разрядность: 24 Bit/48 kHz
[+] Трек-лист 01. Good Together (00:03:21) 02. Dance With A Stranger (00:03:35) 03. Far Gone (00:02:03) 04. Get Around (00:02:51) 05. Help Is On The Way (00:03:04) 06. Walking Uphill (00:03:16) 07. Better Not Tell You (00:03:12) 08. Seats At The Bar (00:03:56) 09. Twenty-Five (00:03:02) 10. Party On The Roof (00:03:42) 11. Set Sail (Prometheus & Eros) (00:04:27)
[+] DRM foobar2000 1.5.5 / Замер динамического диапазона (DR) 1.1.1 ------------------------------------------------------------------------------- Анализ: Lake Street Dive / Good Together -------------------------------------------------------------------------------- DR Пики RMS Продолжительность трека -------------------------------------------------------------------------------- DR6 -0.31 дБ -7.77 дБ 3:21 01-Good Together DR6 -0.31 дБ -8.09 дБ 3:35 02-Dance With A Stranger DR6 -0.31 дБ -7.79 дБ 2:03 03-Far Gone DR6 -0.31 дБ -7.81 дБ 2:51 04-Get Around DR8 -0.31 дБ -9.82 дБ 3:04 05-Help Is On The Way DR5 -0.31 дБ -7.98 дБ 3:16 06-Walking Uphill DR6 -0.31 дБ -7.71 дБ 3:12 07-Better Not Tell You DR7 -0.31 дБ -8.45 дБ 3:56 08-Seats At The Bar DR10 -0.31 дБ -12.69 дБ 3:02 09-Twenty-Five DR6 -0.31 дБ -7.71 дБ 3:42 10-Party On The Roof DR7 -0.31 дБ -10.03 дБ 4:27 11-Set Sail (Prometheus & Eros) -------------------------------------------------------------------------------- Количество треков: 11 Реальные значения DR: DR7 Частота: 48000 Гц Каналов: 2 Разрядность: 24 Битрейт: 1619 кбит/с Кодек: FLAC ================================================================================
Время раздачи: 24/7 (минимум до появления первых 3-5 скачавших, на раздачи не возвращаюсь) Первое правило участника файлообмена: "Скачал сам - дай скачать другому!"

Всего файлов в раздаче: 12 
01. Good Together.flac40.64 MB
02. Dance With a Stranger.flac43.74 MB
03. Far Gone.flac24.85 MB
04. Get Around.flac35.35 MB
05. Help Is On the Way.flac36.20 MB
06. Walking Uphill.flac39.14 MB
07. Better Not Tell You.flac39.39 MB
08. Seats At the Bar.flac46.95 MB
09. Twenty-Five.flac31.70 MB
10. Party On the Roof.flac41.86 MB
Показать все файлы

Похожие раздачи по запросу - Lake
Вчера magnet Женщина в озере / Lady in the Lake [01x01-02 из 07] (2024) WEBRip 1080p от Kerob | L2 4.01 GB ↑ 0 ↓ 1
Вчера magnet Женщина в озере / Lady in the Lake [01х01-02 из 07] (2024) WEBRip | ViruseProject 1.23 GB ↑ 2 ↓ 3
Вчера magnet Женщина в озере / Lady in the Lake [01x01-02 из 07] (2024) WEBRip от Kerob | L2 968.50 MB ↑ 0 ↓ 0
Вчера magnet Женщина в озере / Lady in the Lake [01х01-02 из 07] (2024) WEBRip 1080p | ViruseProject 3.75 GB ↑ 0 ↓ 4
2024-07-11 magnet Акулье озеро / Shark Lake (2015) BDRip 1080p | D, P, L2, L1 9.51 GB ↑ 0 ↓ 0

Комментарии


Зарегистрируйтесь чтобы добавить комментарий
Торрент клиент
byTorrent - программа для загрузки торрент-файлов.

Скачать byTorrent.exe (1,5 МБ)

Скачать byTorrent.zip (0,6 МБ)

Поддержи torrent.by
российских рублей
(300 российских рублей это 4$)

Обратная связь rss

End game ©