↑↓torrent.by
Поиск
Логин:  Регистрация
Пароль:

G-Eazy - Freak Show [24-bit Hi-Res] (2024) FLAC

download Скачать торрент-файл   magnet Магнитная ссылка Размер: 426.59 MB Добавлен: 2024-06-26 05:00
Пиры будут получены из сети DHT
Последний сидер был замечен 2024-06-30 14:49
Название: Freak Show Исполнитель: G-Eazy Год: 2024 Жанр: Hip-Hop, Rap Издатель (лейбл): BPG - RVG - RCA Records Продолжительность: 00:35:09 Формат/Кодек: FLAC Тип рипа: Tracks Битрейт аудио: Lossless Разрядность: 24 Bit/48 kHz
[+] Трек-лист 01. Welcome (00:01:07) 02. Showbiz (00:02:17) 03. Freak Show (00:03:09) 04. Femme Fatale (00:03:10) 05. Say Less (00:02:25) 06. Backseat (00:03:25) 07. Wtfdik (00:02:01) 08. South Of France (00:03:12) 09. One Day (00:03:31) 10. Love You Forever (00:04:27) 11. Lady Killers Iii (00:02:56) 12. Anxiety (00:03:29)
[+] DRM foobar2000 1.5.5 / Замер динамического диапазона (DR) 1.1.1 ------------------------------------------------------------------------------- Анализ: G-Eazy / Freak Show -------------------------------------------------------------------------------- DR Пики RMS Продолжительность трека -------------------------------------------------------------------------------- DR8 -0.30 дБ -12.56 дБ 1:07 01-Welcome DR3 -0.40 дБ -7.33 дБ 2:17 02-Showbiz DR3 -0.10 дБ -5.14 дБ 3:09 03-Freak Show DR6 -0.30 дБ -9.28 дБ 3:10 04-Femme Fatale DR4 -0.30 дБ -6.93 дБ 2:25 05-Say Less DR4 -0.30 дБ -6.97 дБ 3:25 06-Backseat DR4 -0.30 дБ -6.00 дБ 2:01 07-Wtfdik DR6 -0.30 дБ -7.61 дБ 3:12 08-South Of France DR7 -0.30 дБ -9.19 дБ 3:31 09-One Day DR6 -0.30 дБ -8.25 дБ 4:27 10-Love You Forever DR4 -0.30 дБ -7.01 дБ 2:56 11-Lady Killers Iii DR5 -0.30 дБ -6.90 дБ 3:29 12-Anxiety -------------------------------------------------------------------------------- Количество треков: 12 Реальные значения DR: DR5 Частота: 48000 Гц Каналов: 2 Разрядность: 24 Битрейт: 1766 кбит/с Кодек: FLAC ================================================================================
Время раздачи: 24/7 (минимум до появления первых 3-5 скачавших, на раздачи не возвращаюсь) Первое правило участника файлообмена: "Скачал сам - дай скачать другому!"

Всего файлов в раздаче: 13 
01. Welcome.flac12.50 MB
02. Showbiz.flac28.51 MB
03. Freak Show.flac36.32 MB
04. Femme Fatale.flac38.96 MB
05. Say Less.flac29.81 MB
06. Backseat.flac39.29 MB
07. WTFDIK.flac24.59 MB
08. South Of France.flac39.43 MB
09. One Day.flac43.57 MB
10. Love You Forever.flac54.35 MB
Показать все файлы

Комментарии


Зарегистрируйтесь чтобы добавить комментарий
Торрент клиент
byTorrent - программа для загрузки торрент-файлов.

Скачать byTorrent.exe (1,5 МБ)

Скачать byTorrent.zip (0,6 МБ)

Поддержи torrent.by
российских рублей
(300 российских рублей это 4$)

Обратная связь rss

End game ©