↑↓torrent.by
Поиск
Логин:  Регистрация
Пароль:

Фуриоса: Хроники Безумного Макса / Furiosa: A Mad Max Saga (2024) UHD WEB-DL 2160p | 4K | HDR | Dolby Vision Profile 8 | L, A

download Скачать торрент-файл   magnet Магнитная ссылка Размер: 26.81 GB Раздают: 0 Качают: 6 Добавлен: 2024-06-26 05:00
Пиры будут получены из сети DHT
Последний сидер был замечен 2024-07-14 21:02
Название: Фуриоса: Хроники Безумного Макса Оригинальное название: Furiosa: A Mad Max Saga Год выхода: 2024 Производство: Австралия, США / Warner Bros., Kennedy Miller Mitchell Жанр: Фантастика, боевик Перевод: Любительский многоголосый, авторский одноголосый Продолжительность: 02:28:11 Режиссёр: Джордж Миллер В ролях: Аня Тейлор-Джой, Крис Хемсворт, Том Бёрк, Алила Браун, Джордж Шевцов, Лейчи Халм, Джон Ховард, Энгус Сэмпсон, Чарли Фрейзер, Эльза Патаки Описание: История похищения юной воительницы Фуриосы из Зелёных Земель, в результате которого девушка попадает в руки орды байкеров под предводительством Военачальника Дементуса. Пробираясь через Пустошь, они натыкаются на Цитадель, которой управляет Бессмертный Джо, и пока два тирана борются за господство, Фуриосе предстоит пережить множество испытаний, пытаясь найти путь домой. Формат: MKV Качество: WEB-DL 2160p Видео: MPEGH HEVC / ~ 24.2 Mbps / 3840x1608 / 0.163 Бит/(Пиксели*Кадры) / 23.976 fps Аудио 01: AC-3, 2 ch, 192 kbps | Русский, L | Soundmasters | Аудио 02: E-AC3, 6 ch, 768 kbps | Русский, AVO | М. Яроцкий | Аудио 03: Е-AC3+Atmos, 6 ch, 768 kbps | Английский | Субтитры: Русские (Full), Английские (Full, SDH)
[+] MediainfoОбщее Уникальный идентификатор : 146701139745033530002248705391550561586 (0x6E5D9C9E56EC2647124090DE44207D32) Полное имя : F:Furiosa.A.Mad.Max.Saga.2024.x265.WEB-DL.2160p.HDR-DV.mkv Формат : Matroska Версия формата : Version 4 Размер файла : 26,8 Гбайт Продолжительность : 2 ч. 28 м. Общий поток : 25,9 Мбит/сек Дата кодирования : UTC 2024-06-25 12:38:13 Программа кодирования : mkvmerge v85.0 ('Shame For You') 64-bit Библиотека кодирования : libebml v1.4.5 + libmatroska v1.7.1 Видео Идентификатор : 1 Формат : HEVC Формат/Информация : High Efficiency Video Coding Профиль формата : Main 10@L5@High HDR format : Dolby Vision, Version 1.0, dvhe.08.06, BL+RPU, HDR10 compatible / SMPTE ST 2094 App 4, Version 1, HDR10+ Profile B compatible Идентификатор кодека : V_MPEGH/ISO/HEVC Продолжительность : 2 ч. 28 м. Битрейт : 24,2 Мбит/сек Ширина : 3 840 пикселей Высота : 1 608 пикселей Соотношение сторон : 2,40:1 Режим частоты кадров : Постоянный Частота кадров : 23,976 (24000/1001) кадра/сек Цветовое пространство : YUV Субдискретизация насыщенности : 4:2:0 (Type 2) Битовая глубина : 10 бит Бит/(Пиксели*Кадры) : 0.163 Размер потока : 25,0 Гбайт (93%) Язык : English Default : Да Forced : Да Цветовой диапазон : Limited Основные цвета : BT.2020 Характеристики трансфера : PQ Коэффициенты матрицы : BT.2020 non-constant Mastering display color primaries : BT.2020 Mastering display luminance : min: 0.0050 cd/m2, max: 1000 cd/m2 Maximum Content Light Level : 2636 cd/m2 Maximum Frame-Average Light Level : 747 cd/m2 Аудио #1 Идентификатор : 2 Формат : AC-3 Формат/Информация : Audio Coding 3 Коммерческое название : Dolby Digital Идентификатор кодека : A_AC3 Продолжительность : 2 ч. 28 м. Вид битрейта : Постоянный Битрейт : 192 Кбит/сек Каналы : 2 канала Channel layout : L R Частота : 48,0 КГц Частота кадров : 31,250 кадров/сек (1536 SPF) Метод сжатия : С потерями Размер потока : 204 Мбайт (1%) Заголовок : MVO (Soundmasters) Язык : Russian Service kind : Complete Main Default : Да Forced : Да Аудио #2 Идентификатор : 3 Формат : E-AC-3 Формат/Информация : Enhanced AC-3 Коммерческое название : Dolby Digital Plus Идентификатор кодека : A_EAC3 Продолжительность : 2 ч. 28 м. Вид битрейта : Постоянный Битрейт : 768 Кбит/сек Каналы : 6 каналов Channel layout : L R C LFE Ls Rs Частота : 48,0 КГц Частота кадров : 31,250 кадров/сек (1536 SPF) Метод сжатия : С потерями Размер потока : 814 Мбайт (3%) Заголовок : AVO (М. Яроцкий | 18+) Язык : Russian Service kind : Complete Main Default : Нет Forced : Нет Аудио #3 Идентификатор : 4 Формат : E-AC-3 JOC Формат/Информация : Enhanced AC-3 with Joint Object Coding Коммерческое название : Dolby Digital Plus with Dolby Atmos Идентификатор кодека : A_EAC3 Продолжительность : 2 ч. 28 м. Вид битрейта : Постоянный Битрейт : 768 Кбит/сек Каналы : 6 каналов Channel layout : L R C LFE Ls Rs Частота : 48,0 КГц Частота кадров : 31,250 кадров/сек (1536 SPF) Метод сжатия : С потерями Размер потока : 814 Мбайт (3%) Язык : English Service kind : Complete Main Default : Нет Forced : Нет Complexity index : 16 Number of dynamic objects : 15 Bed channel count : 1 канал Bed channel configuration : LFE Текст #1 Идентификатор : 5 Формат : UTF-8 Идентификатор кодека : S_TEXT/UTF8 Идентификатор кодека/Информация : UTF-8 Plain Text Продолжительность : 2 ч. 17 м. Битрейт : 45 бит/сек Частота кадров : 0,128 кадр/сек Count of elements : 1054 Размер потока : 46,1 Кбайт (0%) Заголовок : FOCS Язык : Russian Default : Нет Forced : Нет Текст #2 Идентификатор : 6 Формат : UTF-8 Идентификатор кодека : S_TEXT/UTF8 Идентификатор кодека/Информация : UTF-8 Plain Text Продолжительность : 2 ч. 16 м. Битрейт : 28 бит/сек Частота кадров : 0,128 кадр/сек Count of elements : 1050 Размер потока : 28,1 Кбайт (0%) Язык : English Default : Нет Forced : Нет Текст #3 Идентификатор : 7 Формат : UTF-8 Идентификатор кодека : S_TEXT/UTF8 Идентификатор кодека/Информация : UTF-8 Plain Text Продолжительность : 2 ч. 17 м. Битрейт : 36 бит/сек Частота кадров : 0,170 кадр/сек Count of elements : 1401 Размер потока : 36,7 Кбайт (0%) Заголовок : SDH Язык : English Default : Нет Forced : Нет Меню 00:00:00.000 : en:Chapter 01 00:10:19.369 : en:Chapter 02 00:20:10.627 : en:Chapter 03 00:29:00.240 : en:Chapter 04 00:40:06.656 : en:Chapter 05 00:53:12.692 : en:Chapter 06 01:00:35.635 : en:Chapter 07 01:19:05.745 : en:Chapter 08 01:28:55.919 : en:Chapter 09 01:40:17.684 : en:Chapter 10 01:49:44.751 : en:Chapter 11 01:59:16.906 : en:Chapter 12 02:06:08.693 : en:Chapter 13 02:17:44.681 : en:Chapter 14
[+] Скриншоты

Всего файлов в раздаче: 1 
Furiosa.A.Mad.Max.Saga.2024.x265.WEB-DL.2160p.HDR-DV.mkv26.81 GB

Похожие раздачи по запросу - Фуриоса
2024-07-15 magnet Фуриоса: Хроники Безумного Макса / Фуріоза: Шалений Макс. Сага / Furiosa: A Mad Max Saga (2024) WEB-DL-HEVC 2160p | 4K | SDR | D | UKR 26.45 GB ↑ 0 ↓ 1
2024-07-06 magnet Фуриоса: Хроники Безумного Макса / Furiosa: A Mad Max Saga (2024) UHD WEB-DL 2160p | 4K | HDR | Dolby Vision Profile 8 | D, P, A 31.04 GB ↑ 3 ↓ 11
2024-07-03 magnet Фуриоса: Хроники Безумного Макса / Furiosa: A Mad Max Saga (2024) WEB-DLRip-AVC | КПК | D, P | Red Head Sound, HDrezka Studio 805.80 MB ↑ 0 ↓ 0
2024-07-03 magnet Фуриоса: Хроники Безумного Макса / Furiosa: A Mad Max Saga [2024, фантастика, боевик, WEB-DLRip-AVC] Dub 2.18 GB ↑ 0 ↓ 1
2024-07-01 magnet Фуриоса: Хроники Безумного Макса / Furiosa: A Mad Max Saga (2024) WEB-DLRip 1080p | D, P, A | Movie Dubbing, RHS, LostFilm, HDrezka, Jaskier, TVShows, Яроцкий 22.53 GB ↑ 1 ↓ 6
2024-06-30 magnet Фуриоса: Хроники Безумного Макса / Furiosa: A Mad Max Saga (2024) WEB-DLRip от DoMiNo & селезень | D | Red Head Sound 1.47 GB ↑ 0 ↓ 1
2024-06-30 magnet Фуриоса: Хроники Безумного Макса / Furiosa: A Mad Max Saga (2024) UHD WEB-DL HEVC 2160p | 4K | Dolby Vision TV | D | Movie Dubbing, Red Head Sound 27.00 GB ↑ 1 ↓ 4

Комментарии


Зарегистрируйтесь чтобы добавить комментарий
Торрент клиент
byTorrent - программа для загрузки торрент-файлов.

Скачать byTorrent.exe (1,5 МБ)

Скачать byTorrent.zip (0,6 МБ)

Поддержи torrent.by
российских рублей
(300 российских рублей это 4$)

Обратная связь rss

End game ©