↑↓torrent.by
Поиск
Логин:  Регистрация
Пароль:

Два билета на Марс / Space Oddity (2022) BDRip-AVC от New-Team | D, P

download Скачать торрент-файл   magnet Магнитная ссылка Размер: 2.17 GB Добавлен: 2024-06-26 11:00
Пиры будут получены из сети DHT
Последний сидер был замечен 2024-06-26 11:00
Два билета на Марс / Space Oddity Год выпуска: 2022 Выпущено: США, Arlook Group, The, Big Swing Productions, Rolling Pictures, Unique Features Жанр: Комедия, фантастика, мелодрама Режиссер: Кира Седжвик / Kyra Sedgwick В ролях: Кайл Аллен, Александра Шипп, Мадлен Брюэр, Саймон Хелберг, Кэрри Престон, Кевин Бейкон, Эндрю Полк, Арден Майрин, Алессандра Ноэль Розенфельд, Питер МакСвиггин, Джим Бойд, Лайам Андерсон, Тони Эстрелла, Памела Джейн Морган, Кристо Нил Джексон О фильме: Алекс решает отправиться на Марс и даже находит спонсора для своего полета в один конец. Но в процессе подготовки к экспедиции он встречает девушку, которая заставляет его серьезно задуматься над планами на будущее. Продолжительность: 01:34:23 Перевод (ы): #1: Профессиональный (полное дублирование) | Pride Production #2: Профессиональный (многоголосый, закадровый) | Jaskier Субтитры: Русские, английские. Раздача от: Автор релиза: JNS82. Формат: MKV Качество: BDRip-AVC Видео: MPEG-4 AVC, (2,000), 1024x512, 2025 Кбит/с, 23,976 fps Аудио #1: 48 kHz, AC3 Dolby Digital, 3/2 (L,C,R,l,r) + LFE ch, ~ 448 kbps | RUS | DUB Аудио #2: 48 kHz, AC3 Dolby Digital, 3/2 (L,C,R,l,r) + LFE ch, ~ 384 kbps | RUS | MVO Аудио #3: 48 kHz, AC3 Dolby Digital, 3/2 (L,C,R,l,r) + LFE ch, ~ 448 kbps | ENG |
[+] MediaInfoОбщее Уникальный идентификатор : 176189131729627306893396312032602044657 (0x848CCADF2433333A263F6A97618938F1) Полное имя : D:TorrentsSpace.Oddity.2022.BDRip-AVC_от New-Team.mkv Формат : Matroska Версия формата : Version 4 Размер файла : 2,17 Гбайт Продолжительность : 1 ч. 34 м. Общий поток : 3 295 Кбит/сек Название фильма : Space.Oddity.2022.BDRip-AVC_от New-Team Дата кодирования : UTC 2024-06-26 05:23:30 Программа кодирования : mkvmerge v79.0 ('Funeral Pyres') 64-bit Библиотека кодирования : libebml v1.4.4 + libmatroska v1.7.1 Видео Идентификатор : 1 Формат : AVC Формат/Информация : Advanced Video Codec Профиль формата : High@L4.1 Настройки формата : CABAC / 12 Ref Frames Параметр CABAC формата : Да Параметр RefFrames формата : 12 кадров Идентификатор кодека : V_MPEG4/ISO/AVC Продолжительность : 1 ч. 34 м. Битрейт : 2 025 Кбит/сек Ширина : 1 024 пикселя Высота : 512 пикселей Соотношение сторон : 2,000 Режим частоты кадров : Постоянный Частота кадров : 23,976 (24000/1001) кадра/сек Цветовое пространство : YUV Субдискретизация насыщенности : 4:2:0 Битовая глубина : 8 бит Тип развёртки : Прогрессивная Бит/(Пиксели*Кадры) : 0.161 Размер потока : 1,33 Гбайт (61%) Библиотека кодирования : x264 core 164 r3156+57M NewTeam t_mod_New Настройки программы : cabac=1 / ref=12 / deblock=1:-3:-3 / analyse=0x3:0x133 / me=umh / subme=10 / psy=1 / fade_compensate=0.00 / psy_rd=1.02:0.05 / mixed_ref=1 / me_range=32 / chroma_me=1 / trellis=2 / 8x8dct=1 / cqm=0 / deadzone=21,11 / fast_pskip=0 / chroma_qp_offset=-3 / threads=16 / lookahead_threads=4 / sliced_threads=0 / nr=0 / decimate=0 / interlaced=0 / bluray_compat=0 / constrained_intra=0 / fgo=0 / bframes=10 / b_pyramid=2 / b_adapt=2 / b_bias=0 / direct=3 / weightb=1 / open_gop=0 / weightp=2 / keyint=240 / keyint_min=23 / scenecut=40 / intra_refresh=0 / rc_lookahead=60 / rc=2pass / mbtree=0 / bitrate=2025 / ratetol=1.0 / qcomp=0.60 / qpmin=0:0:0 / qpmax=69:69:69 / qpstep=5 / cplxblur=20.0 / qblur=0.5 / vbv_maxrate=50000 / vbv_bufsize=62500 / nal_hrd=none / filler=0 / ip_ratio=1.40 / pb_ratio=1.30 / aq=1:1.00 / aq-sensitivity=10.00 / aq-factor=1.00:1.00:1.00 / aq2=0 / aq3=0 Язык : English Default : Да Forced : Нет Аудио #1 Идентификатор : 2 Формат : AC-3 Формат/Информация : Audio Coding 3 Коммерческое название : Dolby Digital Идентификатор кодека : A_AC3 Продолжительность : 1 ч. 34 м. Вид битрейта : Постоянный Битрейт : 448 Кбит/сек Каналы : 6 каналов Channel layout : L R C LFE Ls Rs Частота : 48,0 КГц Частота кадров : 31,250 кадров/сек (1536 SPF) Метод сжатия : С потерями Размер потока : 302 Мбайт (14%) Заголовок : DUB - Pride Production Язык : Russian Service kind : Complete Main Default : Да Forced : Нет Аудио #2 Идентификатор : 3 Формат : AC-3 Формат/Информация : Audio Coding 3 Коммерческое название : Dolby Digital Идентификатор кодека : A_AC3 Продолжительность : 1 ч. 34 м. Вид битрейта : Постоянный Битрейт : 384 Кбит/сек Каналы : 6 каналов Channel layout : L R C LFE Ls Rs Частота : 48,0 КГц Частота кадров : 31,250 кадров/сек (1536 SPF) Метод сжатия : С потерями Размер потока : 259 Мбайт (12%) Заголовок : MVO - Jaskier Язык : Russian Service kind : Complete Main Default : Нет Forced : Нет Аудио #3 Идентификатор : 4 Формат : AC-3 Формат/Информация : Audio Coding 3 Коммерческое название : Dolby Digital Идентификатор кодека : A_AC3 Продолжительность : 1 ч. 34 м. Вид битрейта : Постоянный Битрейт : 448 Кбит/сек Каналы : 6 каналов Channel layout : L R C LFE Ls Rs Частота : 48,0 КГц Частота кадров : 31,250 кадров/сек (1536 SPF) Метод сжатия : С потерями Размер потока : 302 Мбайт (14%) Заголовок : Original Язык : English Service kind : Complete Main Default : Нет Forced : Нет Текст #1 Идентификатор : 5 Формат : UTF-8 Идентификатор кодека : S_TEXT/UTF8 Идентификатор кодека/Информация : UTF-8 Plain Text Продолжительность : 1 ч. 29 м. Битрейт : 103 бит/сек Count of elements : 1358 Размер потока : 68,1 Кбайт (0%) Заголовок : Язык : Russian Default : Нет Forced : Нет Текст #2 Идентификатор : 6 Формат : UTF-8 Идентификатор кодека : S_TEXT/UTF8 Идентификатор кодека/Информация : UTF-8 Plain Text Продолжительность : 1 ч. 29 м. Битрейт : 69 бит/сек Count of elements : 1464 Размер потока : 45,3 Кбайт (0%) Заголовок : Язык : English Default : Нет Forced : Нет Меню 00:00:00.000 : :Chapter 1 00:13:39.819 : :Chapter 2 00:27:34.653 : :Chapter 3 00:40:41.439 : :Chapter 4 00:56:15.372 : :Chapter 5 01:09:30.166 : :Chapter 6 01:30:29.424 : :Chapter 7

Всего файлов в раздаче: 1 
Space.Oddity.2022.BDRip-AVC_от New-Team.mkv2.17 GB

Похожие раздачи по запросу - Два
2024-06-27 magnet Два билета на Марс / Space Oddity (2022) BDRip 720p от DoMiNo & селезень | D | Pride Production 3.39 GB ↑ 0 ↓ 0
2024-06-27 magnet Два билета на Марс / Space Oddity (2022) BDRip от DoMiNo & селезень | D | Pride Production 1.46 GB ↑ 0 ↓ 0
2024-06-26 magnet Два билета на Марс / Space Oddity (2022) BDRip 1080p от MegaPeer | D, P 8.40 GB ↑ 0 ↓ 0
2024-06-26 magnet Два билета на Марс / Space Oddity (2022) BDRip от MegaPeer | D 1.46 GB ↑ 0 ↓ 0

Комментарии


Зарегистрируйтесь чтобы добавить комментарий
Торрент клиент
byTorrent - программа для загрузки торрент-файлов.

Скачать byTorrent.exe (1,5 МБ)

Скачать byTorrent.zip (0,6 МБ)

Поддержи torrent.by
российских рублей
(300 российских рублей это 4$)

Обратная связь rss

End game ©