↑↓torrent.by
Поиск
Логин:  Регистрация
Пароль:

Fastball - Sonic Ranch [24-bit Hi-Res] (2024) FLAC

download Скачать торрент-файл   magnet Магнитная ссылка Размер: 665.84 MB Добавлен: 2024-06-26 11:00
Пиры будут получены из сети DHT
Последний сидер был замечен 2024-06-27 16:48
Название: Sonic Ranch Исполнитель: Fastball Год: 2024 Жанр: Rock Издатель (лейбл): Sunset Blvd Records Продолжительность: 00:31:56 Формат/Кодек: FLAC Тип рипа: Tracks Битрейт аудио: Lossless Разрядность: 24 Bit/96 kHz
[+] Трек-лист 01. Rather Be Me Than You (00:03:11) 02. Daydream (00:03:04) 03. Hummingbird (00:03:13) 04. Get You Off My Mind (00:03:18) 05. Grey Sky Blue (00:02:41) 06. America (00:03:28) 07. Let Love Back In Your Heart (00:03:23) 08. On And On (00:04:08) 09. The Island Of Me (00:03:04) 10. I'll Be On My Way (00:02:26)
[+] DRM foobar2000 1.5.5 / Замер динамического диапазона (DR) 1.1.1 ------------------------------------------------------------------------------- Анализ: Fastball / Sonic Ranch -------------------------------------------------------------------------------- DR Пики RMS Продолжительность трека -------------------------------------------------------------------------------- DR5 0.00 дБ -6.06 дБ 3:11 01-Rather Be Me Than You DR5 0.00 дБ -6.43 дБ 3:04 02-Daydream DR7 -0.01 дБ -7.62 дБ 3:13 03-Hummingbird DR6 0.00 дБ -6.57 дБ 3:18 04-Get You Off My Mind DR6 0.00 дБ -7.29 дБ 2:41 05-Grey Sky Blue DR6 0.00 дБ -7.24 дБ 3:28 06-America DR7 -0.01 дБ -7.25 дБ 3:23 07-Let Love Back In Your Heart DR5 0.00 дБ -7.67 дБ 4:08 08-On And On DR6 -0.01 дБ -7.68 дБ 3:04 09-The Island Of Me DR5 0.00 дБ -7.23 дБ 2:26 10-I'll Be On My Way -------------------------------------------------------------------------------- Количество треков: 10 Реальные значения DR: DR6 Частота: 96000 Гц Каналов: 2 Разрядность: 24 Битрейт: 2651 кбит/с Кодек: FLAC ================================================================================
Время раздачи: 24/7 (минимум до появления первых 3-5 скачавших, на раздачи не возвращаюсь) Первое правило участника файлообмена: "Скачал сам - дай скачать другому!"

Всего файлов в раздаче: 11 
01. Rather Be Me Than You.flac70.69 MB
02. Daydream.flac66.56 MB
03. Hummingbird.flac67.52 MB
04. Get You Off My Mind.flac72.02 MB
05. Grey Sky Blue.flac49.22 MB
06. America.flac72.65 MB
07. Let Love Back In Your Heart.flac72.12 MB
08. On And On.flac85.97 MB
09. The Island Of Me.flac62.78 MB
10. I'll Be On My Way.flac46.22 MB
Показать все файлы

Похожие раздачи по запросу - Fastball
2024-06-25 magnet Fastball - Sonic Ranch (2024) MP3 74.56 MB ↑ 0 ↓ 0

Комментарии


Зарегистрируйтесь чтобы добавить комментарий
Торрент клиент
byTorrent - программа для загрузки торрент-файлов.

Скачать byTorrent.exe (1,5 МБ)

Скачать byTorrent.zip (0,6 МБ)

Поддержи torrent.by
российских рублей
(300 российских рублей это 4$)

Обратная связь rss

End game ©