↑↓torrent.by
Поиск
Логин:  Регистрация
Пароль:

Gracie Abrams - The Secret Of Us [24-bit Hi-Res] (2024) FLAC

download Скачать торрент-файл   magnet Магнитная ссылка Размер: 588.69 MB Добавлен: 2024-06-26 11:00
Пиры будут получены из сети DHT
Последний сидер был замечен 2024-06-28 09:08
Название: The Secret Of Us Исполнитель: Gracie Abrams Год: 2024 Жанр: Pop, Indie-Pop, Ballad Издатель (лейбл): Gracie Abrams, under exclusive license to Interscope Records Продолжительность: 00:47:39 Формат/Кодек: FLAC Тип рипа: Tracks Битрейт аудио: Lossless Разрядность: 24 Bit/48 kHz
[+] Трек-лист 01. Felt Good About You (00:02:45) 02. Risk (00:03:12) 03. Blowing Smoke (00:03:52) 04. I Love You, I'm Sorry (00:02:37) 05. Us. (00:04:03) 06. Let It Happen (00:04:21) 07. Tough Love (00:02:49) 08. I Knew It, I Know You (00:04:13) 09. Gave You I Gave You I (00:04:29) 10. Normal Thing (00:04:02) 11. Good Luck Charlie (00:03:56) 12. Free Now (00:03:34) 13. Close To You (00:03:46)
[+] DRM foobar2000 1.5.5 / Замер динамического диапазона (DR) 1.1.1 ------------------------------------------------------------------------------- Анализ: Gracie Abrams / The Secret Of Us -------------------------------------------------------------------------------- DR Пики RMS Продолжительность трека -------------------------------------------------------------------------------- DR6 -0.20 дБ -8.35 дБ 2:45 01-Felt Good About You DR6 -0.20 дБ -8.29 дБ 3:12 02-Risk DR5 -0.20 дБ -7.22 дБ 3:52 03-Blowing Smoke DR6 -0.20 дБ -8.99 дБ 2:37 04-I Love You, I'm Sorry DR5 -0.20 дБ -8.43 дБ 4:03 05-Us. DR6 -0.20 дБ -7.29 дБ 4:21 06-Let It Happen DR5 -0.20 дБ -6.79 дБ 2:49 07-Tough Love DR6 -0.20 дБ -9.43 дБ 4:13 08-I Knew It, I Know You DR6 -0.20 дБ -8.17 дБ 4:29 09-Gave You I Gave You I DR6 -0.20 дБ -8.59 дБ 4:02 10-Normal Thing DR8 -0.20 дБ -10.98 дБ 3:56 11-Good Luck Charlie DR7 -0.20 дБ -9.99 дБ 3:34 12-Free Now DR5 -0.20 дБ -7.46 дБ 3:46 13-Close To You -------------------------------------------------------------------------------- Количество треков: 13 Реальные значения DR: DR6 Частота: 48000 Гц Каналов: 2 Разрядность: 24 Битрейт: 1765 кбит/с Кодек: FLAC ================================================================================
Время раздачи: 24/7 (минимум до появления первых 3-5 скачавших, на раздачи не возвращаюсь) Первое правило участника файлообмена: "Скачал сам - дай скачать другому!"

Всего файлов в раздаче: 14 
01. Felt Good About You.flac32.89 MB
02. Risk.flac40.58 MB
03. Blowing Smoke.flac49.22 MB
04. I Love You, I'm Sorry.flac32.36 MB
05. us.flac52.62 MB
06. Let It Happen.flac53.60 MB
07. Tough Love.flac36.62 MB
08. I Knew It, I Know You.flac51.82 MB
09. Gave You I Gave You I.flac55.12 MB
10. Normal Thing.flac48.10 MB
Показать все файлы

Похожие раздачи по запросу - Gracie
2024-07-12 magnet Пушистый вояж / Gracie and Pedro: Pets to the Rescue (2024) WEB-DLRip от ExKinoRay | D 1.37 GB ↑ 0 ↓ 3
2024-07-11 magnet Пушистый вояж / Gracie and Pedro: Pets to the Rescue (2024) WEB-DL 1080p | D 3.51 GB ↑ 0 ↓ 2

Комментарии


Зарегистрируйтесь чтобы добавить комментарий
Торрент клиент
byTorrent - программа для загрузки торрент-файлов.

Скачать byTorrent.exe (1,5 МБ)

Скачать byTorrent.zip (0,6 МБ)

Поддержи torrent.by
российских рублей
(300 российских рублей это 4$)

Обратная связь rss

End game ©