↑↓torrent.by
Поиск
Логин:  Регистрация
Пароль:

Linda Thompson - Proxy Music [24Bit, Hi-Res] (2024) FLAC

download Скачать торрент-файл   magnet Магнитная ссылка Размер: 758.15 MB Добавлен: 2024-06-26 11:00
Пиры будут получены из сети DHT
Последний сидер был замечен 2024-06-27 16:48
Linda Thompson - Proxy Music (2024) Жанр: Blues-Rock, Pop, Female-Vocal Издание: 2024 StorySound Records Источник: ссылка Продолжительность: 00:39:52 Кодек: FLAC 24/96 Битрейт: Lossless|WEB-DL Тип рипа: tracks Треклист: 01. The Solitary Traveller 02. Or Nothing at All 03. Bonnie Lass 04. Darling This Will Never Do 05. I Used To Be So Pretty 06. John Grant 07. Mudlark 08. Shores Of America 09. That's The Way The Polka Goes 10. Three Shaky Ships 11. Those Damn Roches
[+] Отчёт Замер динамического диапазона: foobar2000 2.0 / Замер динамического диапазона (DR) 1.1.1 Дата отчёта: 2024-06-25 13:55:47 -------------------------------------------------------------------------------- Анализ: Linda Thompson, Dori Freeman / Proxy Music (1) Linda Thompson, ELIZA CARTHY / Proxy Music (2) Linda Thompson, John Grant / Proxy Music (3) Linda Thompson, Kami Thompson / Proxy Music (4) Linda Thompson, Martha Wainwright / Proxy Music (5) Linda Thompson, Ren Harvieu / Proxy Music (6) Linda Thompson, Rufus Wainwright / Proxy Music (7) Linda Thompson, Teddy Thompson / Proxy Music (8) Linda Thompson, The Proclaimers / Proxy Music (9) Linda Thompson, The Rails / Proxy Music (10) Linda Thompson, The Unthanks / Proxy Music (11) -------------------------------------------------------------------------------- DR Пики RMS Продолжительность трека -------------------------------------------------------------------------------- DR12 -0.55 дБ -15.36 дБ 2:51 08-Shores Of America DR11 0.00 дБ -14.31 дБ 3:34 09-That's The Way The Polka Goes DR10 -0.20 дБ -11.70 дБ 3:41 06-John Grant DR11 -0.43 дБ -12.53 дБ 4:04 01-The Solitary Traveller DR12 -1.21 дБ -16.29 дБ 4:23 02-Or Nothing at All DR10 -0.40 дБ -12.52 дБ 3:15 05-I Used To Be So Pretty DR10 -0.53 дБ -12.22 дБ 3:11 04-Darling This Will Never Do DR11 -0.01 дБ -14.06 дБ 4:13 11-Those Damn Roches DR10 -2.23 дБ -14.71 дБ 3:19 03-Bonnie Lass DR10 -0.34 дБ -12.90 дБ 3:18 07-Mudlark DR10 0.00 дБ -11.91 дБ 4:03 10-Three Shaky Ships -------------------------------------------------------------------------------- Количество треков: 11 Реальные значения DR: DR11 Частота: 96000 Гц Каналов: 2 Разрядность: 24 Битрейт: 2635 кбит/с Кодек: FLAC ================================================================================
[+] Отчёт Mi: Format : FLAC Format/Info : Free Lossless Audio Codec File size : 80.1 MiB Duration : 4 min 3 s Overall bit rate mode : Variable Overall bit rate : 2 754 kb/s Album : Proxy Music Album/Performer : Linda Thompson Part : 1 Part/Total : 1 Track name : The Solitary Traveller Track name/Position : 1 Track name/Total : 11 Performer : Linda Thompson / Kami Thompson Composer : Linda Thompson / James Walbourne Producer : StorySound Records LLC Label : StorySound Records LLC Genre : Blues Recorded date : 2024-06-21 ISRC : USSWQ2406201 Copyright : 2024 StorySound Records 2024 StorySound Records Cover : Yes Cover type : Cover (front) Cover MIME : image/jpeg Comment : https://www.qobuz.com/gb-en/album/proxy-music-linda-thompson/pqlqt2m6ub5fb INVOLVEDPEOPLE : Linda Thompson, Composer, Lyricist, MainArtist - James Walbourne, Composer, Lyricist - Kami Thompson, FeaturedArtist - SantoSongs (ASCAP), MusicPublisher - Downtown Music (ASCAP), MusicPublisher ITUNESADVISORY : 0 MEDIATYPE : album UPC : 0634457168329 URL : https://www.qobuz.com/fr-fr/album/proxy-music-linda-thompson/pqlqt2m6ub5fb Audio Format : FLAC Format/Info : Free Lossless Audio Codec Duration : 4 min 3 s Bit rate mode : Variable Bit rate : 2 751 kb/s Channel(s) : 2 channels Channel layout : L R Sampling rate : 96.0 kHz Bit depth : 24 bits Compression mode : Lossless Stream size : 80.0 MiB (100%) MD5 of the unencoded content : 00000000000000000000000000000000 General Complete name : C:Deemix MusicJune 21, 2024Linda Thompson - 2024 - Proxy Music (24bit-96kHz)�2 - Or Nothing at All.flac Format : FLAC Format/Info : Free Lossless Audio Codec File size : 71.8 MiB Duration : 4 min 23 s Overall bit rate mode : Variable Overall bit rate : 2 288 kb/s Album : Proxy Music Album/Performer : Linda Thompson Part : 1 Part/Total : 1 Track name : Or Nothing at All Track name/Position : 2 Track name/Total : 11 Performer : Linda Thompson / Martha Wainwright Composer : Linda Thompson / Charlie Dore Producer : StorySound Records LLC Label : StorySound Records LLC Genre : Blues Recorded date : 2024-06-21 ISRC : USSWQ2406202 Copyright : 2024 StorySound Records 2024 StorySound Records Cover : Yes Cover type : Cover (front) Cover MIME : image/jpeg Comment : 2024 StorySound Records INVOLVEDPEOPLE : Linda Thompson, Composer, Lyricist, MainArtist - Charlie Dore, Composer, Lyricist - Martha Wainwright, FeaturedArtist - Warner Chappell (ASCAP), MusicPublisher - SantoSongs (ASCAP), MusicPublisher ITUNESADVISORY : 0 MEDIATYPE : album UPC : 0634457168329 URL : https://www.qobuz.com/fr-fr/album/proxy-music-linda-thompson/pqlqt2m6ub5fb Audio Format : FLAC Format/Info : Free Lossless Audio Codec Duration : 4 min 23 s Bit rate mode : Variable Bit rate : 2 286 kb/s Channel(s) : 2 channels Channel layout : L R Sampling rate : 96.0 kHz Bit depth : 24 bits Compression mode : Lossless Stream size : 71.7 MiB (100%) MD5 of the unencoded content : 00000000000000000000000000000000 General Complete name : C:Deemix MusicJune 21, 2024Linda Thompson - 2024 - Proxy Music (24bit-96kHz)�3 - Bonnie Lass.flac Format : FLAC Format/Info : Free Lossless Audio Codec File size : 59.1 MiB Duration : 3 min 18 s Overall bit rate mode : Variable Overall bit rate : 2 498 kb/s Album : Proxy Music Album/Performer : Linda Thompson Part : 1 Part/Total : 1 Track name : Bonnie Lass Track name/Position : 3 Track name/Total : 11 Performer : Linda Thompson / The Proclaimers Composer : Linda Thompson / Teddy Thompson Producer : StorySound Records LLC Label : StorySound Records LLC Genre : Blues Recorded date : 2024-06-21 ISRC : USSWQ2406203 Copyright : 2024 StorySound Records 2024 StorySound Records Cover : Yes Cover type : Cover (front) Cover MIME : image/jpeg INVOLVEDPEOPLE : The Proclaimers, FeaturedArtist - Linda Thompson, Composer, Lyricist, MainArtist - Teddy Thompson, Composer, Lyricist - SantoSongs (ASCAP), MusicPublisher - 1830 Music (ASCAP), MusicPublisher ITUNESADVISORY : 0 MEDIATYPE : album UPC : 0634457168329 URL : https://www.qobuz.com/fr-fr/album/proxy-music-linda-thompson/pqlqt2m6ub5fb Audio Format : FLAC Format/Info : Free Lossless Audio Codec Duration : 3 min 18 s Bit rate mode : Variable Bit rate : 2 495 kb/s Channel(s) : 2 channels Channel layout : L R Sampling rate : 96.0 kHz Bit depth : 24 bits Compression mode : Lossless Stream size : 59.1 MiB (100%) MD5 of the unencoded content : 00000000000000000000000000000000 General Complete name : C:Deemix MusicJune 21, 2024Linda Thompson - 2024 - Proxy Music (24bit-96kHz)�4 - Darling This Will Never Do.flac Format : FLAC Format/Info : Free Lossless Audio Codec File size : 65.8 MiB Duration : 3 min 10 s Overall bit rate mode : Variable Overall bit rate : 2 894 kb/s Album : Proxy Music Album/Performer : Linda Thompson Part : 1 Part/Total : 1 Track name : Darling This Will Never Do Track name/Position : 4 Track name/Total : 11 Performer : Linda Thompson / Rufus Wainwright Composer : Linda Thompson / Teddy Thompson Producer : StorySound Records LLC Label : StorySound Records LLC Genre : Blues Recorded date : 2024-06-21 ISRC : USSWQ2406204 Copyright : 2024 StorySound Records 2024 StorySound Records Cover : Yes Cover type : Cover (front) Cover MIME : image/jpeg INVOLVEDPEOPLE : Linda Thompson, Composer, Lyricist, MainArtist - Teddy Thompson, Composer, Lyricist - Rufus Wainwright, FeaturedArtist - SantoSongs (ASCAP), MusicPublisher - 1830 Music (ASCAP), MusicPublisher ITUNESADVISORY : 0 MEDIATYPE : album UPC : 0634457168329 URL : https://www.qobuz.com/fr-fr/album/proxy-music-linda-thompson/pqlqt2m6ub5fb Audio Format : FLAC Format/Info : Free Lossless Audio Codec Duration : 3 min 10 s Bit rate mode : Variable Bit rate : 2 890 kb/s Channel(s) : 2 channels Channel layout : L R Sampling rate : 96.0 kHz Bit depth : 24 bits Compression mode : Lossless Stream size : 65.7 MiB (100%) MD5 of the unencoded content : 00000000000000000000000000000000 General Complete name : C:Deemix MusicJune 21, 2024Linda Thompson - 2024 - Proxy Music (24bit-96kHz)�5 - I Used To Be So Pretty.flac Format : FLAC Format/Info : Free Lossless Audio Codec File size : 63.4 MiB Duration : 3 min 14 s Overall bit rate mode : Variable Overall bit rate : 2 730 kb/s Album : Proxy Music Album/Performer : Linda Thompson Part : 1 Part/Total : 1 Track name : I Used To Be So Pretty Track name/Position : 5 Track name/Total : 11 Performer : Linda Thompson / Ren Harvieu Composer : Linda Thompson Producer : StorySound Records LLC Label : StorySound Records LLC Genre : Blues Recorded date : 2024-06-21 ISRC : USSWQ2406205 Copyright : 2024 StorySound Records 2024 StorySound Records Cover : Yes Cover type : Cover (front) Cover MIME : image/jpeg INVOLVEDPEOPLE : Linda Thompson, Composer, Lyricist, MainArtist - Ren Harvieu, FeaturedArtist - SantoSongs (ASCAP), MusicPublisher ITUNESADVISORY : 0 MEDIATYPE : album UPC : 0634457168329 URL : https://www.qobuz.com/fr-fr/album/proxy-music-linda-thompson/pqlqt2m6ub5fb Audio Format : FLAC Format/Info : Free Lossless Audio Codec Duration : 3 min 14 s Bit rate mode : Variable Bit rate : 2 727 kb/s Channel(s) : 2 channels Channel layout : L R Sampling rate : 96.0 kHz Bit depth : 24 bits Compression mode : Lossless Stream size : 63.4 MiB (100%) MD5 of the unencoded content : 00000000000000000000000000000000 General Complete name : C:Deemix MusicJune 21, 2024Linda Thompson - 2024 - Proxy Music (24bit-96kHz)�6 - John Grant.flac Format : FLAC Format/Info : Free Lossless Audio Codec File size : 69.9 MiB Duration : 3 min 41 s Overall bit rate mode : Variable Overall bit rate : 2 649 kb/s Album : Proxy Music Album/Performer : Linda Thompson Part : 1 Part/Total : 1 Track name : John Grant Track name/Position : 6 Track name/Total : 11 Performer : Linda Thompson / John Grant Composer : John Grant / Linda Thompson / Teddy Thompson Producer : StorySound Records LLC Label : StorySound Records LLC Genre : Blues Recorded date : 2024-06-21 ISRC : USSWQ2406206 Copyright : 2024 StorySound Records 2024 StorySound Records Cover : Yes Cover type : Cover (front) Cover MIME : image/jpeg INVOLVEDPEOPLE : John Grant, Composer, Lyricist, FeaturedArtist - Linda Thompson, Composer, Lyricist, MainArtist - Teddy Thompson, Composer, Lyricist - SantoSongs (ASCAP), MusicPublisher - BMG Music (ASCAP), MusicPublisher - 1830 Music (ASCAP), MusicPublisher ITUNESADVISORY : 0 MEDIATYPE : album UPC : 0634457168329 URL : https://www.qobuz.com/fr-fr/album/proxy-music-linda-thompson/pqlqt2m6ub5fb Audio Format : FLAC Format/Info : Free Lossless Audio Codec Duration : 3 min 41 s Bit rate mode : Variable Bit rate : 2 646 kb/s Channel(s) : 2 channels Channel layout : L R Sampling rate : 96.0 kHz Bit depth : 24 bits Compression mode : Lossless Stream size : 69.8 MiB (100%) MD5 of the unencoded content : 00000000000000000000000000000000 General Complete name : C:Deemix MusicJune 21, 2024Linda Thompson - 2024 - Proxy Music (24bit-96kHz)�7 - Mudlark.flac Format : FLAC Format/Info : Free Lossless Audio Codec File size : 63.5 MiB Duration : 3 min 18 s Overall bit rate mode : Variable Overall bit rate : 2 684 kb/s Album : Proxy Music Album/Performer : Linda Thompson Part : 1 Part/Total : 1 Track name : Mudlark Track name/Position : 7 Track name/Total : 11 Performer : Linda Thompson / The Rails Composer : Linda Thompson / James Walbourne Producer : StorySound Records LLC Label : StorySound Records LLC Genre : Blues Recorded date : 2024-06-21 ISRC : USSWQ2406207 Copyright : 2024 StorySound Records 2024 StorySound Records Cover : Yes Cover type : Cover (front) Cover MIME : image/jpeg INVOLVEDPEOPLE : Linda Thompson, Composer, Lyricist, MainArtist - James Walbourne, Composer, Lyricist - The Rails, FeaturedArtist - SantoSongs (ASCAP), MusicPublisher - Downtown Music (ASCAP), MusicPublisher ITUNESADVISORY : 0 MEDIATYPE : album UPC : 0634457168329 URL : https://www.qobuz.com/fr-fr/album/proxy-music-linda-thompson/pqlqt2m6ub5fb Audio Format : FLAC Format/Info : Free Lossless Audio Codec Duration : 3 min 18 s Bit rate mode : Variable Bit rate : 2 681 kb/s Channel(s) : 2 channels Channel layout : L R Sampling rate : 96.0 kHz Bit depth : 24 bits Compression mode : Lossless Stream size : 63.4 MiB (100%) MD5 of the unencoded content : 00000000000000000000000000000000 General Complete name : C:Deemix MusicJune 21, 2024Linda Thompson - 2024 - Proxy Music (24bit-96kHz)�8 - Shores Of America.flac Format : FLAC Format/Info : Free Lossless Audio Codec File size : 54.1 MiB Duration : 2 min 51 s Overall bit rate mode : Variable Overall bit rate : 2 648 kb/s Album : Proxy Music Album/Performer : Linda Thompson Part : 1 Part/Total : 1 Track name : Shores Of America Track name/Position : 8 Track name/Total : 11 Performer : Linda Thompson / Dori Freeman Composer : Linda Thompson Producer : StorySound Records LLC Label : StorySound Records LLC Genre : Blues Recorded date : 2024-06-21 ISRC : USSWQ2406208 Copyright : 2024 StorySound Records 2024 StorySound Records Cover : Yes Cover type : Cover (front) Cover MIME : image/jpeg INVOLVEDPEOPLE : Linda Thompson, Composer, Lyricist, MainArtist - SantoSongs (ASCAP), MusicPublisher - Dori Freeman, FeaturedArtist ITUNESADVISORY : 0 MEDIATYPE : album UPC : 0634457168329 URL : https://www.qobuz.com/fr-fr/album/proxy-music-linda-thompson/pqlqt2m6ub5fb Audio Format : FLAC Format/Info : Free Lossless Audio Codec Duration : 2 min 51 s Bit rate mode : Variable Bit rate : 2 645 kb/s Channel(s) : 2 channels Channel layout : L R Sampling rate : 96.0 kHz Bit depth : 24 bits Compression mode : Lossless Stream size : 54.0 MiB (100%) MD5 of the unencoded content : 00000000000000000000000000000000 General Complete name : C:Deemix MusicJune 21, 2024Linda Thompson - 2024 - Proxy Music (24bit-96kHz)�9 - That's The Way The Polka Goes.flac Format : FLAC Format/Info : Free Lossless Audio Codec File size : 70.5 MiB Duration : 3 min 33 s Overall bit rate mode : Variable Overall bit rate : 2 763 kb/s Album : Proxy Music Album/Performer : Linda Thompson Part : 1 Part/Total : 1 Track name : That's The Way The Polka Goes Track name/Position : 9 Track name/Total : 11 Performer : Linda Thompson / ELIZA CARTHY Composer : Linda Thompson / ELIZA CARTHY Producer : StorySound Records LLC Label : StorySound Records LLC Genre : Blues Recorded date : 2024-06-21 ISRC : USSWQ2406209 Copyright : 2024 StorySound Records 2024 StorySound Records Cover : Yes Cover type : Cover (front) Cover MIME : image/jpeg INVOLVEDPEOPLE : Linda Thompson, Composer, Lyricist, MainArtist - ELIZA CARTHY, Composer, Lyricist, FeaturedArtist - SantoSongs (ASCAP), MusicPublisher - Eliza Carthy (PRS), MusicPublisher ITUNESADVISORY : 0 MEDIATYPE : album UPC : 0634457168329 URL : https://www.qobuz.com/fr-fr/album/proxy-music-linda-thompson/pqlqt2m6ub5fb Audio Format : FLAC Format/Info : Free Lossless Audio Codec Duration : 3 min 33 s Bit rate mode : Variable Bit rate : 2 760 kb/s Channel(s) : 2 channels Channel layout : L R Sampling rate : 96.0 kHz Bit depth : 24 bits Compression mode : Lossless Stream size : 70.4 MiB (100%) MD5 of the unencoded content : 00000000000000000000000000000000 General Complete name : C:Deemix MusicJune 21, 2024Linda Thompson - 2024 - Proxy Music (24bit-96kHz)10 - Three Shaky Ships.flac Format : FLAC Format/Info : Free Lossless Audio Codec File size : 76.3 MiB Duration : 4 min 2 s Overall bit rate mode : Variable Overall bit rate : 2 637 kb/s Album : Proxy Music Album/Performer : Linda Thompson Part : 1 Part/Total : 1 Track name : Three Shaky Ships Track name/Position : 10 Track name/Total : 11 Performer : Linda Thompson / The Unthanks Composer : Richard Thompson / Linda Thompson Producer : StorySound Records LLC Label : StorySound Records LLC Genre : Blues Recorded date : 2024-06-21 ISRC : USSWQ2406210 Copyright : 2024 StorySound Records 2024 StorySound Records Cover : Yes Cover type : Cover (front) Cover MIME : image/jpeg INVOLVEDPEOPLE : Richard Thompson, Composer, Lyricist - Linda Thompson, Composer, Lyricist, MainArtist - The Unthanks, FeaturedArtist - Kobalt Music (BMI), MusicPublisher - SantoSongs (ASCAP), MusicPublisher ITUNESADVISORY : 0 MEDIATYPE : album UPC : 0634457168329 URL : https://www.qobuz.com/fr-fr/album/proxy-music-linda-thompson/pqlqt2m6ub5fb Audio Format : FLAC Format/Info : Free Lossless Audio Codec Duration : 4 min 2 s Bit rate mode : Variable Bit rate : 2 635 kb/s Channel(s) : 2 channels Channel layout : L R Sampling rate : 96.0 kHz Bit depth : 24 bits Compression mode : Lossless Stream size : 76.2 MiB (100%) MD5 of the unencoded content : 00000000000000000000000000000000 General Complete name : C:Deemix MusicJune 21, 2024Linda Thompson - 2024 - Proxy Music (24bit-96kHz)11 - Those Damn Roches.flac Format : FLAC Format/Info : Free Lossless Audio Codec File size : 81.1 MiB Duration : 4 min 13 s Overall bit rate mode : Variable Overall bit rate : 2 688 kb/s Album : Proxy Music Album/Performer : Linda Thompson Part : 1 Part/Total : 1 Track name : Those Damn Roches Track name/Position : 11 Track name/Total : 11 Performer : Linda Thompson / Teddy Thompson Composer : Linda Thompson / Teddy Thompson Producer : StorySound Records LLC Label : StorySound Records LLC Genre : Blues Recorded date : 2024-06-21 ISRC : USSWQ2406211 Copyright : 2024 StorySound Records 2024 StorySound Records Cover : Yes Cover type : Cover (front) Cover MIME : image/jpeg INVOLVEDPEOPLE : Linda Thompson, Composer, Lyricist, MainArtist - Teddy Thompson, Composer, Lyricist, FeaturedArtist - SantoSongs (ASCAP), MusicPublisher - 1830 Music (ASCAP), MusicPublisher ITUNESADVISORY : 0 MEDIATYPE : album UPC : 0634457168329 URL : https://www.qobuz.com/fr-fr/album/proxy-music-linda-thompson/pqlqt2m6ub5fb Audio Format : FLAC Format/Info : Free Lossless Audio Codec Duration : 4 min 13 s Bit rate mode : Variable Bit rate : 2 685 kb/s Channel(s) : 2 channels Channel layout : L R Sampling rate : 96.0 kHz Bit depth : 24 bits Compression mode : Lossless Stream size : 81.1 MiB (100%) MD5 of the unencoded content : 00000000000000000000000000000000 General Complete name : C:Deemix MusicJune 21, 2024Linda Thompson - 2024 - Proxy Music (24bit-96kHz)Cover.jpg Format : JPEG File size : 2.63 MiB Image Format : JPEG Width : 2 000 pixels Height : 2 000 pixels Color space : YUV Chroma subsampling : 4:4:4 Bit depth : 8 bits Compression mode : Lossy Stream size : 2.63 MiB (100%) ColorSpace_ICC : RGB

Всего файлов в раздаче: 12 
01 - The Solitary Traveller.flac80.05 MB
02 - Or Nothing at All.flac71.80 MB
03 - Bonnie Lass.flac59.13 MB
04 - Darling This Will Never Do.flac65.77 MB
05 - I Used To Be So Pretty.flac63.45 MB
06 - John Grant.flac69.87 MB
07 - Mudlark.flac63.49 MB
08 - Shores Of America.flac54.06 MB
09 - That's The Way The Polka Goes.flac70.47 MB
10 - Three Shaky Ships.flac76.32 MB
Показать все файлы

Комментарии


Зарегистрируйтесь чтобы добавить комментарий
Торрент клиент
byTorrent - программа для загрузки торрент-файлов.

Скачать byTorrent.exe (1,5 МБ)

Скачать byTorrent.zip (0,6 МБ)

Поддержи torrent.by
российских рублей
(300 российских рублей это 4$)

Обратная связь rss

End game ©