↑↓torrent.by
Поиск
Логин:  Регистрация
Пароль:

Годзилла: Минус один / Gojira -1.0 / Godzilla: Minus One (2023) BDRip 1080p от Generalfilm | D

download Скачать торрент-файл   magnet Магнитная ссылка Размер: 6.64 GB Раздают: 0 Качают: 1 Добавлен: 2024-06-26 11:00
Пиры будут получены из сети DHT
Последний сидер был замечен вчера в 16:02
Годзилла: Минус один / Gojira -1.0 / Godzilla: Minus One Информация о фильме Год выпуска: 2023 Страна: Япония Студия: Robot Communications, Toho Company, Toho Studios Жанр: фантастика, боевик, драма Перевод: Дублированный (неофициальный) | Red Head Sound Продолжительность: 02:04:38 Субтитры: Русские | Forced Режиссер: Такаси Ямадзаки В ролях: Минами Хамабэ, Рюноскэ Камики, Сакура Андо, Кураносукэ Сасаки, Мунэтака Аоки, Юки Ямада, Хидэтака Ёсиока, Майкл Ариас, Юя Эндо, Кисукэ Иида О фильме: В последние дни Второй мировой камикадзе Коити Сикисима посадил самолёт на острове Одо, где располагалась ремонтная база императорской армии Японии. В тот же вечер на них напал непонятно откуда взявшийся огромный ящер Годзилла — именно так называли его местные. Коити возвращается в разрушенный бомбардировками Токио (родители погибли, от дома остались одни обломки) и пытается жить дальше. К нему прибивается тоже потерявшая семью девушка с младенцем, которого она спасла во время воздушного налёта. Время идёт, жизнь налаживается, Коити работает в команде по обезвреживанию мин в Токийском заливе, и однажды их хлипкий деревянный катер сталкивается с Годзиллой, который после ядерных испытаний на атолле Бикини стал ещё больше и ещё свирепее. Качество: BDRip 1080p Формат: MKV Видео: MPEG-4 AVC, 1920x800 (2.40:1), 23,976 fps, 7000 Kbit/s (0.190 bit/pixel) Аудио: русский, AC3, 5.1, 48 kHz, 640 kbps | Red Head Sound Навигация по главам: есть Релиз от:
[+] ОтчетМедиаИнфо General Unique ID : 247792714143940497753589630967342466761 (0xBA6B240C9691FC4EBDCA57197AC886C9) Complete name : E:GFGodzilla.Minus.One.2023.BDRip.1080p.Rip.by.HardwareMining.R.G.Generalfilm.mkv Format : Matroska Format version : Version 4 File size : 6.64 GiB Duration : 2 h 4 min Overall bit rate : 7 626 kb/s Frame rate : 23.976 FPS Movie name : Godzilla.Minus.One.2023.BDRip.1080p.Rip.by.HardwareMining.R.G.Generalfilm Encoded date : 2024-06-24 15:12:17 UTC Writing application : mkvmerge v6.8.0 ('Theme for Great Cities') 32bit built on Mar 2 2014 21:27:07 Writing library : libebml v1.3.0 + libmatroska v1.4.1 Cover : Yes Attachments : cover0.png Video ID : 1 Format : AVC Format/Info : Advanced Video Codec Format profile : High@L4.1 Format settings : CABAC / 4 Ref Frames Format settings, CABAC : Yes Format settings, Reference frames : 4 frames Codec ID : V_MPEG4/ISO/AVC Duration : 2 h 4 min Bit rate : 7 000 kb/s Width : 1 920 pixels Height : 800 pixels Display aspect ratio : 2.40:1 Frame rate mode : Constant Frame rate : 23.976 FPS Color space : YUV Chroma subsampling : 4:2:0 Bit depth : 8 bits Scan type : Progressive Bits/(Pixel*Frame) : 0.190 Stream size : 5.95 GiB (90%) Writing library : x264 core 130 r2273 b3065e6 Encoding settings : cabac=1 / ref=4 / deblock=1:-2:-1 / analyse=0x3:0x133 / me=umh / subme=10 / psy=1 / psy_rd=1.00:0.08 / mixed_ref=1 / me_range=32 / chroma_me=1 / trellis=2 / 8x8dct=1 / cqm=0 / deadzone=21,11 / fast_pskip=0 / chroma_qp_offset=-3 / threads=48 / lookahead_threads=6 / sliced_threads=0 / nr=0 / decimate=1 / interlaced=0 / bluray_compat=0 / constrained_intra=0 / bframes=11 / b_pyramid=2 / b_adapt=2 / b_bias=0 / direct=3 / weightb=1 / open_gop=0 / weightp=2 / keyint=250 / keyint_min=25 / scenecut=40 / intra_refresh=0 / rc=2pass / mbtree=0 / bitrate=7000 / ratetol=1.0 / qcomp=0.60 / qpmin=0 / qpmax=69 / qpstep=4 / cplxblur=20.0 / qblur=0.5 / ip_ratio=1.40 / pb_ratio=1.30 / aq=2:1.00 Language : English Default : Yes Forced : No Color range : Limited Color primaries : BT.709 Transfer characteristics : BT.709 Matrix coefficients : BT.709 Audio ID : 2 Format : AC-3 Format/Info : Audio Coding 3 Commercial name : Dolby Digital Codec ID : A_AC3 Duration : 2 h 4 min Bit rate mode : Constant Bit rate : 640 kb/s Channel(s) : 6 channels Channel layout : L R C LFE Ls Rs Sampling rate : 48.0 kHz Frame rate : 31.250 FPS (1536 SPF) Compression mode : Lossy Stream size : 571 MiB (8%) Title : Dub | Red Head Sound Language : Russian Service kind : Complete Main Default : Yes Forced : No Dialog Normalization : -31 dB cmixlev : -3.0 dB surmixlev : -3 dB dialnorm_Average : -31 dB dialnorm_Minimum : -31 dB dialnorm_Maximum : -31 dB Text ID : 3 Format : UTF-8 Codec ID : S_TEXT/UTF8 Codec ID/Info : UTF-8 Plain Text Title : Forced Language : Russian Default : No Forced : No Menu 00:00:00.000 : ja:Глава 01 00:13:21.509 : ja:Глава 02 00:20:07.664 : ja:Глава 03 00:30:31.579 : ja:Глава 04 00:44:53.565 : ja:Глава 05 00:52:28.019 : ja:Глава 06 01:05:42.271 : ja:Глава 07 01:14:52.279 : ja:Глава 08 01:17:59.716 : ja:Глава 09 01:25:42.011 : ja:Глава 10 01:36:21.025 : ja:Глава 11 01:58:58.798 : ja:Глава 12
[+] Скриншоты

Всего файлов в раздаче: 1 
Godzilla.Minus.One.2023.BDRip.1080p.Rip.by.HardwareMining.R.G.Generalfilm.mkv6.64 GB

Похожие раздачи по запросу - Годзилла
2024-06-17 magnet Годзилла и Конг: Новая империя / Godzilla x Kong: The New Empire (2024) BDRip 1080p от Generalfilm | D 11.45 GB ↑ 0 ↓ 0
2024-06-13 magnet Годзилла: Минус один / Gojira -1.0 / Godzilla: Minus One (2023) BDRip 1080p от Scarabey | D | Red Head Sound 9.73 GB ↑ 0 ↓ 0
2024-06-13 magnet Годзилла: Минус один / Gojira -1.0 / Godzilla: Minus One (2023) BDRip 720p от DoMiNo & селезень | D | Red Head Sound 4.46 GB ↑ 0 ↓ 0
2024-06-13 magnet Годзилла: Минус один / Gojira -1.0 / Godzilla: Minus One (2023) BDRip от MegaPeer | D | Red Head Sound 1.46 GB ↑ 0 ↓ 0
2024-06-11 magnet Годзилла и Конг: Новая империя / Godzilla x Kong: The New Empire (2024) BDRip-HEVC 1080p от HEVC-CLUB | D 7.99 GB ↑ 0 ↓ 0
2024-06-10 magnet Годзилла и Конг: Новая империя / Godzilla x Kong: The New Empire (2024) BDRip 1080p от ExKinoRay | D, P 14.78 GB ↑ 0 ↓ 0
2024-06-08 magnet Годзилла и Конг: Новая империя / Godzilla x Kong: The New Empire (2024) BDRip 1080p от EniaHD | D, P 17.56 GB ↑ 0 ↓ 0

Комментарии


Зарегистрируйтесь чтобы добавить комментарий
Торрент клиент
byTorrent - программа для загрузки торрент-файлов.

Скачать byTorrent.exe (1,5 МБ)

Скачать byTorrent.zip (0,6 МБ)

Поддержи torrent.by
российских рублей
(300 российских рублей это 4$)

Обратная связь rss

End game ©