↑↓torrent.by
Поиск
Логин:  Регистрация
Пароль:

The Story So Far - I Want To Disappear [24-bit Hi-Res] (2024) FLAC

download Скачать торрент-файл   magnet Магнитная ссылка Размер: 372.24 MB Добавлен: 2024-06-26 11:00
Пиры будут получены из сети DHT
Последний сидер был замечен 2024-06-27 16:48
Название: I Want To Disappear Исполнитель: The Story So Far Год: 2024 Жанр: Rock, Pop-Punk Издатель (лейбл): Pure Noise Records Продолжительность: 00:28:14 Формат/Кодек: FLAC Тип рипа: Tracks Битрейт аудио: Lossless Разрядность: 24 Bit/48 kHz
[+] Трек-лист 01. All This Time (00:02:49) 02. Watch You Go (00:02:11) 03. Letterman (00:03:01) 04. Jump The Gun (00:02:36) 05. Big Blind (00:02:28) 06. Nothing To Say (00:02:57) 07. Keep You Around (00:03:50) 08. You're Still In My Way (00:02:34) 09. White Shores (00:03:12) 10. I Want To Disappear (00:02:36)
[+] DRM foobar2000 1.5.5 / Замер динамического диапазона (DR) 1.1.1 ------------------------------------------------------------------------------- Анализ: The Story So Far / I Want To Disappear -------------------------------------------------------------------------------- DR Пики RMS Продолжительность трека -------------------------------------------------------------------------------- DR5 -0.10 дБ -6.30 дБ 2:49 01-All This Time DR4 -0.15 дБ -5.14 дБ 2:11 02-Watch You Go DR5 -0.10 дБ -6.96 дБ 3:01 03-Letterman DR4 -0.15 дБ -6.19 дБ 2:36 04-Jump The Gun DR5 -0.15 дБ -5.98 дБ 2:28 05-Big Blind DR5 -0.15 дБ -5.83 дБ 2:57 06-Nothing To Say DR4 -0.10 дБ -6.74 дБ 3:50 07-Keep You Around DR4 -0.15 дБ -6.02 дБ 2:34 08-You're Still In My Way DR5 -0.10 дБ -9.44 дБ 3:12 09-White Shores DR9 -0.10 дБ -11.60 дБ 2:36 10-I Want To Disappear -------------------------------------------------------------------------------- Количество треков: 10 Реальные значения DR: DR5 Частота: 48000 Гц Каналов: 2 Разрядность: 24 Битрейт: 1646 кбит/с Кодек: FLAC ================================================================================
Время раздачи: 24/7 (минимум до появления первых 3-5 скачавших, на раздачи не возвращаюсь) Первое правило участника файлообмена: "Скачал сам - дай скачать другому!"

Всего файлов в раздаче: 11 
01. All This Time.flac38.02 MB
02. Watch You Go.flac29.73 MB
03. Letterman.flac39.99 MB
04. Jump The Gun.flac35.48 MB
05. Big Blind.flac33.54 MB
06. Nothing To Say.flac40.09 MB
07. Keep You Around.flac50.35 MB
08. You're Still in My Way.flac33.86 MB
09. White Shores.flac40.40 MB
10. I Want To Disappear.flac30.72 MB
Показать все файлы

Комментарии


Зарегистрируйтесь чтобы добавить комментарий
Торрент клиент
byTorrent - программа для загрузки торрент-файлов.

Скачать byTorrent.exe (1,5 МБ)

Скачать byTorrent.zip (0,6 МБ)

Поддержи torrent.by
российских рублей
(300 российских рублей это 4$)

Обратная связь rss

End game ©