↑↓torrent.by
Поиск
Логин:  Регистрация
Пароль:

Клад / Hoard (2023) WEB-DLRip-AVC | L

download Скачать торрент-файл   magnet Магнитная ссылка Размер: 2.85 GB Раздают: 3 Качают: 0 Добавлен: il68k 2024-06-26 12:25
Пиры будут получены из сети DHT
Последний сидер был замечен сегодня в 13:07
Информация о фильме Название: Клад Оригинальное название: Hoard Год выхода: 2023 Жанр: драма Режиссер: Луна Кармун В ролях: Джеймс Купер, Сара Роуз Дентон, Набил Элухаби, Сандра Хейл О фильме: История рассказывает о Марии - подростке, чья мать была накопительницей. Сейчас (действие происходит в 90-е годы) она живет в приемной семье, где предыдущий жилец, Майкл, вдохновляет её вернуться к своим детским воспоминаниям и страстям, которые она подавляла. Страна: Великобритания Студия: Anti-Worlds, BBC Films, Delaval Film, Erebus Pictures Продолжительность: 02:06:16 Перевод: Любительский (многоголосый закадровый) | RGB Файл Кодек: Н.264 Качество: WEB-DLRip-AVC Видео: MPEG-4 AVC, 2485 kbps, 1024x576 (16:9), 24.000 fps, 0.174 bit/pixel, High@L4.1 Звук 1: 48 kHz, AC3 Dolby Digital, 3/2 (L, C, R, l, r) + LFE ch, ~384 kbps | RGB Звук 2: 48 kHz, AC3 Dolby Digital, 3/2 (L, C, R, l, r) + LFE ch, ~384 kbps | Английский Субтитры: английские (SDH) Семпл
[+] Награды Венецианский кинофестиваль, 2023 год Победитель (1): Премия авторам моложе 40 лет - лучший сценарист (Luna Carmoon)
[+] Скриншоты
[+] MediaInfo raw : 1024x576p 1:1 @ 24/1 fps (cfr) x264 : using SAR=1/1 x264 : using cpu capabilities: MMX2 SSE2Fast SSSE3 SSE4.2 AVX FMA3 BMI2 AVX2 x264 : profile High, level 4.1, 4:2:0, 8-bit x264 : frame I:1019 Avg QP:17.00 size: 55705 x264 : frame P:39619 Avg QP:18.38 size: 26793 x264 : frame B:141193 Avg QP:19.76 size: 8500 x264 : consecutive B-frames: 1.8% 2.7% 5.6% 23.4% 16.8% 44.7% 3.3% 0.7% 0.3% 0.2% 0.1% 0.1% 0.2% x264 : mb I I16..4: 6.5% 83.8% 9.7% x264 : mb P I16..4: 0.7% 10.4% 0.8% P16..4: 42.3% 28.5% 14.9% 0.0% 0.0% skip: 2.3% x264 : mb B I16..4: 0.0% 0.4% 0.0% B16..8: 45.1% 11.9% 2.7% direct: 6.0% skip:33.8% L0:46.1% L1:46.4% BI: 7.5% x264 : 8x8 transform intra:86.5% inter:62.0% x264 : direct mvs spatial:98.6% temporal:1.4% x264 : coded y, uvDC, uvAC intra: 91.9% 68.9% 36.7% inter: 32.0% 12.6% 3.5% x264 : i16 v, h, dc, p: 23% 10% 12% 55% x264 : i8 v, h, dc, ddl, ddr, vr, hd, vl, hu: 9% 6% 7% 11% 15% 15% 13% 12% 12% x264 : i4 v, h, dc, ddl, ddr, vr, hd, vl, hu: 12% 6% 2% 9% 16% 17% 14% 12% 11% x264 : i8c dc, h, v, p: 42% 22% 19% 16% x264 : Weighted P-Frames: Y:3.6% UV:1.7% x264 : ref P L0: 41.1% 9.5% 17.5% 6.9% 5.9% 4.3% 4.0% 2.2% 2.1% 1.7% 1.7% 1.5% 1.6% 0.1% 0.0% x264 : ref B L0: 66.5% 12.6% 6.8% 3.6% 2.7% 2.2% 1.8% 1.2% 1.0% 0.9% 0.6% 0.3% x264 : ref B L1: 93.3% 6.7% x264 : kb/s:2457.65 x264 : encoded 181831 frames, 9.52 fps, 2457.65 kb/s =================================================================== General Unique ID: 191117116720401533160997346740381986537 (0x8FC7D15B30463A4F634E090154FCAEE9) Complete name: Klad.2023.iT.WEB-DLRip.AVC.mkv Format: Matroska Format version: Version 4 File size: 2.85 GiB Duration: 2 h 6 min Overall bit rate: 3 227 kb/s Frame rate: 24.000 FPS Movie name: Hoard (2023) WEB-DLRip-AVC _ vitolinform Encoded date: 2024-06-25 22:25:25 UTC Writing application: mkvmerge v85.0 ('Shame For You') 64-bit Writing library: libebml v1.4.5 + libmatroska v1.7.1 Attachments: poster.jpg / log.log Video ID: 1 Format: AVC Format/Info: Advanced Video Codec Format profile: High@L4.1 Format settings: CABAC / 13 Ref Frames Format settings, CABAC: Yes Format settings, Reference frames: 13 frames Codec ID: V_MPEG4/ISO/AVC Duration: 2 h 6 min Bit rate: 2 458 kb/s Width: 1 024 pixels Height: 576 pixels Display aspect ratio: 16:9 Frame rate mode: Constant Frame rate: 24.000 FPS Color space: YUV Chroma subsampling: 4:2:0 Bit depth: 8 bits Scan type: Progressive Bits/(Pixel*Frame): 0.174 Stream size: 2.17 GiB (76%) Title: Клад / Hoard (2023) Writing library: x264 core 164 r3182 be4f020 Encoding settings: cabac=1 / ref=13 / deblock=1:-3:-3 / analyse=0x3:0x113 / me=umh / subme=10 / psy=1 / psy_rd=1.00:0.05 / mixed_ref=1 / me_range=32 / chroma_me=1 / trellis=2 / 8x8dct=1 / cqm=0 / deadzone=21, 11 / fast_pskip=0 / chroma_qp_offset=-3 / threads=12 / lookahead_threads=3 / sliced_threads=0 / nr=0 / decimate=0 / interlaced=0 / bluray_compat=0 / constrained_intra=0 / bframes=12 / b_pyramid=2 / b_adapt=2 / b_bias=0 / direct=3 / weightb=1 / open_gop=0 / weightp=2 / keyint=240 / keyint_min=24 / scenecut=40 / intra_refresh=0 / rc_lookahead=60 / rc=2pass / mbtree=0 / bitrate=2458 / ratetol=1.0 / qcomp=0.60 / qpmin=0 / qpmax=69 / qpstep=4 / cplxblur=20.0 / qblur=0.5 / vbv_maxrate=50000 / vbv_bufsize=62500 / nal_hrd=none / filler=0 / ip_ratio=1.40 / pb_ratio=1.30 / aq=1:1.00 Language: English Default: Yes Forced: No Color range: Limited Color primaries: BT.709 Transfer characteristics: BT.709 Matrix coefficients: BT.709 Audio #1 ID: 2 Format: AC-3 Format/Info: Audio Coding 3 Commercial name: Dolby Digital Codec ID: A_AC3 Duration: 2 h 6 min Bit rate mode: Constant Bit rate: 384 kb/s Channel(s): 6 channels Channel layout: L R C LFE Ls Rs Sampling rate: 48.0 kHz Frame rate: 31.250 FPS (1536 SPF) Compression mode: Lossy Stream size: 347 MiB (12%) Title: MVO | RGB Language: Russian Service kind: Complete Main Default: Yes Forced: No Audio #2 ID: 3 Format: AC-3 Format/Info: Audio Coding 3 Commercial name: Dolby Digital Codec ID: A_AC3 Duration: 2 h 6 min Bit rate mode: Constant Bit rate: 384 kb/s Channel(s): 6 channels Channel layout: L R C LFE Ls Rs Sampling rate: 48.0 kHz Frame rate: 31.250 FPS (1536 SPF) Compression mode: Lossy Stream size: 347 MiB (12%) Title: English Language: English Service kind: Complete Main Default: No Forced: No Text ID: 4 Format: UTF-8 Codec ID: S_TEXT/UTF8 Codec ID/Info: UTF-8 Plain Text Duration: 2 h 5 min Bit rate: 55 b/s Frame rate: 0.215 FPS Count of elements: 1619 Stream size: 51.1 KiB (0%) Title: Full Language: English Default: No Forced: No
Rip by vitolinform

Всего файлов в раздаче: 1 
Klad.2023.iT.WEB-DLRip.AVC.mkv2.85 GB

Похожие раздачи по запросу - Клад
2024-06-25 magnet Клад / Hoard (2023) WEB-DLRip-AVC | MVO 1.68 GB ↑ 4 ↓ 0
2024-06-25 magnet Клад / Hoard (2023) WEB-DL 1080p | MVO 9.57 GB ↑ 3 ↓ 1

Комментарии


Зарегистрируйтесь чтобы добавить комментарий
Торрент клиент
byTorrent - программа для загрузки торрент-файлов.

Скачать byTorrent.exe (1,5 МБ)

Скачать byTorrent.zip (0,6 МБ)

Поддержи torrent.by
российских рублей
(300 российских рублей это 4$)

Обратная связь rss

End game ©