↑↓torrent.by
Поиск
Логин:  Регистрация
Пароль:

Слай Сталлоне / Sly (2023) WEB-DL 1080p от New-Team | P

download Скачать торрент-файл   magnet Магнитная ссылка Размер: 5.77 GB Добавлен: il68k 2024-06-26 15:51
Пиры будут получены из сети DHT
Последний сидер был замечен 2024-07-07 22:43
Слай Сталлоне / Sly Год выпуска: 2023 Выпущено: США, Netflix Жанр: Документальный, биография Режиссер: Том Зимни / Thom Zimny В ролях: Сильвестр Сталлоне, Арнольд Шварценеггер, Квентин Тарантино, Дженнифер Флавин, Джон Херцфелд, Уэсли Моррис, Фрэнк Сталлоне, Сэйдж Сталлоне, Скарлет Роуз Сталлоне, Систин Роуз Сталлоне О фильме: Сильвестр Сталлоне рассказывает, как кино помогло ему справиться с трудностями в детстве — и как он превратился из никому не известного паренька в легенду Голливуда. Продолжительность: 01:36:31 Перевод (ы): #1: Профессиональный (многоголосый, закадровый) | LostFilm #2: Профессиональный (многоголосый, закадровый) | HDRezka Studio Субтитры: Русские (forced, full) английские (full) Раздача от: Автор релиза: JNS82. Формат: MKV Качество: WEB-DL 1080p | NF Видео: MPEG-4 AVC, (16:9), 1920x1080, 7547 Кбит/с, 23, 976 fps Аудио #1: 48 kHz, AC3 Dolby Digital, 2/0 (L, R) ch, ~ 192 kbps | RUS | LostFilm Аудио #2: 48 kHz, AC3 Dolby Digital, 2/0 (L, R) ch, ~ 192 kbps | RUS | HDRezka Studio Аудио #3: 48 kHz, E-AC3 Dolby Digital, 3/2 (L, C, R, l, r) + LFE ch, ~ 640 kbps | ENG |
[+] MediaInfoОбщее Уникальный идентификатор: 48240872520212284693202786124298728565 (0x244ADAA5D6D1B7B3B85F8F8987683475) Полное имя: D:TorrentsSly.2023.1080p.NF_от New-Team.mkv Формат: Matroska Версия формата: Version 4 Размер файла: 5, 77 Гбайт Продолжительность: 1 ч. 36 м. Режим общего битрейта: Переменный Общий поток: 8 561 Кбит/сек Название фильма: Sly.2023.1080p.NF_от New-Team Дата кодирования: UTC 2024-06-26 11:44:39 Программа кодирования: mkvmerge v79.0 ('Funeral Pyres') 64-bit Библиотека кодирования: libebml v1.4.4 + libmatroska v1.7.1 Видео Идентификатор: 1 Формат: AVC Формат/Информация: Advanced Video Codec Профиль формата: High@L4 Настройки формата: CABAC / 4 Ref Frames Параметр CABAC формата: Да Параметр RefFrames формата: 4 кадра Идентификатор кодека: V_MPEG4/ISO/AVC Продолжительность: 1 ч. 36 м. Вид битрейта: Переменный Битрейт: 7 547 Кбит/сек Максимальный битрейт: 20, 0 Мбит/сек Ширина: 1 920 пикселей Высота: 1 080 пикселей Соотношение сторон: 16:9 Режим частоты кадров: Постоянный Частота кадров: 23, 976 (24000/1001) кадра/сек Цветовое пространство: YUV Субдискретизация насыщенности: 4:2:0 Битовая глубина: 8 бит Тип развёртки: Прогрессивная Бит/(Пиксели*Кадры): 0.152 Размер потока: 5, 08 Гбайт (88%) Библиотека кодирования: x264 core 148 r2727 7d026e8 Настройки программы: cabac=1 / ref=4 / deblock=1:0:0 / analyse=0x3:0x111 / me=umh / subme=10 / psy=1 / psy_rd=1.00:0.00 / mixed_ref=1 / me_range=120 / chroma_me=1 / trellis=2 / 8x8dct=1 / cqm=0 / deadzone=21, 11 / fast_pskip=1 / chroma_qp_offset=-2 / threads=6 / lookahead_threads=1 / sliced_threads=0 / nr=0 / decimate=1 / interlaced=0 / bluray_compat=0 / stitchable=1 / constrained_intra=0 / bframes=16 / b_pyramid=2 / b_adapt=2 / b_bias=0 / direct=3 / weightb=1 / open_gop=0 / weightp=2 / keyint=240 / keyint_min=121 / scenecut=0 / intra_refresh=0 / rc_lookahead=240 / rc=crf / mbtree=1 / crf=17.0 / qcomp=0.50 / qpmin=6 / qpmax=51 / qpstep=4 / vbv_maxrate=20000 / vbv_bufsize=25000 / crf_max=0.0 / nal_hrd=vbr / filler=0 / ip_ratio=1.40 / aq=1:0.80 Default: Да Forced: Нет Аудио #1 Идентификатор: 2 Формат: AC-3 Формат/Информация: Audio Coding 3 Коммерческое название: Dolby Digital Идентификатор кодека: A_AC3 Продолжительность: 1 ч. 36 м. Вид битрейта: Постоянный Битрейт: 192 Кбит/сек Каналы: 2 канала Channel layout: L R Частота: 48, 0 КГц Частота кадров: 31, 250 кадров/сек (1536 SPF) Метод сжатия: С потерями Размер потока: 133 Мбайт (2%) Заголовок: MVO - LostFilm Язык: Russian Service kind: Complete Main Default: Да Forced: Нет Аудио #2 Идентификатор: 3 Формат: AC-3 Формат/Информация: Audio Coding 3 Коммерческое название: Dolby Digital Идентификатор кодека: A_AC3 Продолжительность: 1 ч. 36 м. Вид битрейта: Постоянный Битрейт: 192 Кбит/сек Каналы: 2 канала Channel layout: L R Частота: 48, 0 КГц Частота кадров: 31, 250 кадров/сек (1536 SPF) Метод сжатия: С потерями Размер потока: 132 Мбайт (2%) Заголовок: MVO - HDRezka Studio Язык: Russian Service kind: Complete Main Default: Нет Forced: Нет Аудио #3 Идентификатор: 4 Формат: E-AC-3 Формат/Информация: Enhanced AC-3 Коммерческое название: Dolby Digital Plus Идентификатор кодека: A_EAC3 Продолжительность: 1 ч. 36 м. Вид битрейта: Постоянный Битрейт: 640 Кбит/сек Каналы: 6 каналов Channel layout: L R C LFE Ls Rs Частота: 48, 0 КГц Частота кадров: 31, 250 кадров/сек (1536 SPF) Метод сжатия: С потерями Размер потока: 441 Мбайт (7%) Заголовок: English Язык: English Service kind: Complete Main Default: Нет Forced: Нет Текст #1 Идентификатор: 5 Формат: UTF-8 Идентификатор кодека: S_TEXT/UTF8 Идентификатор кодека/Информация: UTF-8 Plain Text Продолжительность: 1 ч. 22 м. Битрейт: 0 бит/сек Count of elements: 17 Размер потока: 561 байт (0%) Заголовок: Язык: Russian Default: Да Forced: Нет Текст #2 Идентификатор: 6 Формат: UTF-8 Идентификатор кодека: S_TEXT/UTF8 Идентификатор кодека/Информация: UTF-8 Plain Text Продолжительность: 1 ч. 34 м. Битрейт: 150 бит/сек Count of elements: 1529 Размер потока: 104 Кбайт (0%) Заголовок: Язык: Russian Default: Нет Forced: Нет Текст #3 Идентификатор: 7 Формат: UTF-8 Идентификатор кодека: S_TEXT/UTF8 Идентификатор кодека/Информация: UTF-8 Plain Text Продолжительность: 1 ч. 32 м. Битрейт: 97 бит/сек Count of elements: 1589 Размер потока: 66, 4 Кбайт (0%) Заголовок: Язык: English Default: Нет Forced: Нет

Всего файлов в раздаче: 1 
Sly.2023.1080p.NF_от New-Team.mkv5.77 GB

Похожие раздачи по запросу - Слай
2024-07-07 magnet Слай Сталлоне / Sly (2023) WEB-DLRip-AVC | КПК | P | HDrezka Studio 500.43 MB ↑ 0 ↓ 0

Комментарии


Зарегистрируйтесь чтобы добавить комментарий
Торрент клиент
byTorrent - программа для загрузки торрент-файлов.

Скачать byTorrent.exe (1,5 МБ)

Скачать byTorrent.zip (0,6 МБ)

Поддержи torrent.by
российских рублей
(300 российских рублей это 4$)

Обратная связь rss

End game ©