↑↓torrent.by
Поиск
Логин:  Регистрация
Пароль:

Охотники за привидениями: Леденящий ужас / Мисливці на привидів: Крижана імперія / Ghostbusters: Frozen Empire (2024) BDRemux 1080p | D | UKR

download Скачать торрент-файл   magnet Магнитная ссылка Размер: 25.02 GB Добавлен: 2024-06-26 17:00
Пиры будут получены из сети DHT
Последний сидер был замечен 2024-06-26 17:00
Информация о фильме Название: Охотники за привидениями: Леденящий ужас Оригинальное название: Ghostbusters: Frozen Empire Год выхода: 2024 Жанр: фантастика, фэнтези, комедия, приключения Режиссер: Гил Кинан В ролях: Пол Радд, Кэрри Кун, Финн Вулфхард, Маккенна Грейс, Кумэйл Нанджиани, Пэттон Освальт, Селеста О’Коннор, Логан Ким, Эмили Элин Линд, Джеймс Акастер О фильме: Семья Спенглеров возвращается в легендарную пожарную часть в Нью-Йорке. Страна: США, Канада, Великобритания Продолжительность: 01:55:05 Перевод: Дублированный | Le Doyen (Украинский) Файл Кодек: H.264 Качество: BDRemux 1080p Видео: AVC, 1920x1080 (16:9), 23.976 fps, 24.9 Mb/s Аудио 1: E-AC3, 48.0 kHz, 6 ch, 384 kb/s | UKR Аудио 2: AC3, 48.0 kHz, 6 ch, 384 kb/s | UKR Аудио 3: TrueHD, 48.0 kHz, 8 ch, 4406 kb/s | ENG Аудио 4: AC3, 48.0 kHz, 6 ch, 640 kb/s | ENG Аудио 5: AC3, 48.0 kHz, 2 ch, 192 kb/s | Commentary | ENG Субтитры: украинские (Forced, Full), английские (Full, SDH, Commentary)
[+] MIGeneral Unique ID : 237493728374446846953601775118643486395 (0xB2ABA0D8CBE54FFB0525DB297B6DDEBB) Complete name : Ghostbusters Frozen Empire (2024) BDRemux 1080p Ukr Eng .mkv Format : Matroska Format version : Version 4 File size : 25.0 GiB Duration : 1 h 55 min Overall bit rate mode : Variable Overall bit rate : 31.1 Mb/s Movie name : Ghostbusters: Frozen Empire (2024) Encoded date : UTC 2024-06-21 06:54:25 Writing application : mkvmerge v85.0 ('Shame For You') 64-bit Writing library : libebml v1.4.5 + libmatroska v1.7.1 Cover : Yes Attachments : Cover.jpg Video ID : 1 Format : AVC Format/Info : Advanced Video Codec Format profile : High@L4.1 Format settings : CABAC / 2 Ref Frames Format settings, CABAC : Yes Format settings, Reference frames : 2 frames Format settings, GOP : M=1, N=10 Codec ID : V_MPEG4/ISO/AVC Duration : 1 h 55 min Bit rate mode : Variable Bit rate : 24.9 Mb/s Width : 1 920 pixels Height : 1 080 pixels Display aspect ratio : 16:9 Frame rate mode : Constant Frame rate : 23.976 (24000/1001) FPS Color space : YUV Chroma subsampling : 4:2:0 Bit depth : 8 bits Scan type : Progressive Bits/(Pixel*Frame) : 0.501 Stream size : 20.0 GiB (80%) Default : Yes Forced : No Audio #1 ID : 2 Format : E-AC-3 Format/Info : Enhanced AC-3 Commercial name : Dolby Digital Plus Codec ID : A_EAC3 Duration : 1 h 55 min Bit rate mode : Constant Bit rate : 384 kb/s Channel(s) : 6 channels Channel layout : L R C LFE Ls Rs Sampling rate : 48.0 kHz Frame rate : 31.250 FPS (1536 SPF) Compression mode : Lossy Stream size : 316 MiB (1%) Title : DUB (Le Doyen) Language : Ukrainian Service kind : Complete Main Default : Yes Forced : No Audio #2 ID : 3 Format : AC-3 Format/Info : Audio Coding 3 Commercial name : Dolby Digital Codec ID : A_AC3 Duration : 1 h 55 min Bit rate mode : Constant Bit rate : 384 kb/s Channel(s) : 6 channels Channel layout : L R C LFE Ls Rs Sampling rate : 48.0 kHz Frame rate : 31.250 FPS (1536 SPF) Compression mode : Lossy Stream size : 316 MiB (1%) Title : DUB (Le Doyen) Language : Ukrainian Service kind : Complete Main Default : No Forced : No Audio #3 ID : 4 Format : MLP FBA 16-ch Format/Info : Meridian Lossless Packing FBA with 16-channel presentation Commercial name : Dolby TrueHD with Dolby Atmos Codec ID : A_TRUEHD Duration : 1 h 55 min Bit rate mode : Variable Bit rate : 4 406 kb/s Maximum bit rate : 7 623 kb/s Channel(s) : 8 channels Channel layout : L R C LFE Ls Rs Lb Rb Sampling rate : 48.0 kHz Frame rate : 1 200.000 FPS (40 SPF) Compression mode : Lossless Stream size : 3.54 GiB (14%) Title : Original Language : English Default : No Forced : No Number of dynamic objects : 11 Bed channel count : 1 channel Bed channel configuration : LFE Audio #4 ID : 5 Format : AC-3 Format/Info : Audio Coding 3 Commercial name : Dolby Digital Codec ID : A_AC3 Duration : 1 h 55 min Bit rate mode : Constant Bit rate : 640 kb/s Channel(s) : 6 channels Channel layout : L R C LFE Ls Rs Sampling rate : 48.0 kHz Frame rate : 31.250 FPS (1536 SPF) Compression mode : Lossy Stream size : 527 MiB (2%) Title : Original Language : English Service kind : Complete Main Default : No Forced : No Audio #5 ID : 6 Format : AC-3 Format/Info : Audio Coding 3 Commercial name : Dolby Digital Codec ID : A_AC3 Duration : 1 h 55 min Bit rate mode : Constant Bit rate : 192 kb/s Channel(s) : 2 channels Channel layout : L R Sampling rate : 48.0 kHz Frame rate : 31.250 FPS (1536 SPF) Compression mode : Lossy Stream size : 158 MiB (1%) Title : Commentary by Director/Co-Writer Gil Kenan Language : English Service kind : Complete Main Default : No Forced : No Text #1 ID : 7 Format : UTF-8 Codec ID : S_TEXT/UTF8 Codec ID/Info : UTF-8 Plain Text Duration : 1 h 48 min Bit rate : 1 b/s Count of elements : 34 Stream size : 1.55 KiB (0%) Title : Forced Language : Ukrainian Default : Yes Forced : No Text #2 ID : 8 Format : UTF-8 Codec ID : S_TEXT/UTF8 Codec ID/Info : UTF-8 Plain Text Duration : 1 h 53 min Bit rate : 88 b/s Count of elements : 1328 Stream size : 73.8 KiB (0%) Title : Full Language : Ukrainian Default : No Forced : No Text #3 ID : 9 Format : UTF-8 Codec ID : S_TEXT/UTF8 Codec ID/Info : UTF-8 Plain Text Duration : 1 h 47 min Bit rate : 51 b/s Count of elements : 1291 Stream size : 40.7 KiB (0%) Title : Full Language : English Default : No Forced : No Text #4 ID : 10 Format : UTF-8 Codec ID : S_TEXT/UTF8 Codec ID/Info : UTF-8 Plain Text Duration : 1 h 54 min Bit rate : 66 b/s Count of elements : 2030 Stream size : 55.5 KiB (0%) Title : SDH Language : English Default : No Forced : No Text #5 ID : 11 Format : PGS Codec ID : S_HDMV/PGS Codec ID/Info : Picture based subtitle format used on BDs/HD-DVDs Duration : 1 h 47 min Bit rate : 31.9 kb/s Count of elements : 2590 Stream size : 24.5 MiB (0%) Title : Full Language : English Default : No Forced : No Text #6 ID : 12 Format : PGS Codec ID : S_HDMV/PGS Codec ID/Info : Picture based subtitle format used on BDs/HD-DVDs Duration : 1 h 48 min Bit rate : 38.2 kb/s Count of elements : 3248 Stream size : 29.6 MiB (0%) Title : SDH Language : English Default : No Forced : No Text #7 ID : 13 Format : PGS Codec ID : S_HDMV/PGS Codec ID/Info : Picture based subtitle format used on BDs/HD-DVDs Duration : 1 h 50 min Bit rate : 54.1 kb/s Count of elements : 3139 Stream size : 42.7 MiB (0%) Title : Commentary Language : English Default : No Forced : No Menu 00:00:00.000 : en:Chapter 1 00:04:22.554 : en:Chapter 2 00:11:30.356 : en:Chapter 3 00:18:26.981 : en:Chapter 4 00:24:34.515 : en:Chapter 5 00:29:57.421 : en:Chapter 6 00:36:15.215 : en:Chapter 7 00:44:59.989 : en:Chapter 8 00:52:25.684 : en:Chapter 9 00:58:00.936 : en:Chapter 10 01:05:09.239 : en:Chapter 11 01:11:35.082 : en:Chapter 12 01:20:17.104 : en:Chapter 13 01:25:24.911 : en:Chapter 14 01:33:13.004 : en:Chapter 15 01:43:44.802 : en:Chapter 16
[+] Скриншоты

Всего файлов в раздаче: 1 
Ghostbusters Frozen Empire (2024) BDRemux 1080p Ukr Eng [Hurtom].mkv25.02 GB

Похожие раздачи по запросу - Охотники
Сегодня magnet Охотники за привидениями: Леденящий ужас / Мисливці на привидів: Крижана імперія / Ghostbusters: Frozen Empire (2024) BDRemux 1080p | D | UKR 25.33 GB ↑ 0 ↓ 0
2024-07-17 magnet Павел Барчук - Веер Миров 01, Охотники за Попаданцами (2024) МР3 367.77 MB ↑ 0 ↓ 0
2024-07-03 magnet Охотники из рая / The Hunted (2024) WEB-DLRip-AVC от New-Team | D 1.65 GB ↑ 0 ↓ 0
2024-07-03 magnet Охотники из рая / The Hunted (2024) WEB-DLRip от MegaPeer | D 1.46 GB ↑ 0 ↓ 0
2024-07-03 magnet Охотники из рая / The Hunted (2024) WEB-DL 1080p | D 3.85 GB ↑ 0 ↓ 1
2024-07-03 magnet Охотники из рая / The Hunted (2024) WEB-DLRip от DoMiNo & селезень | D 1.37 GB ↑ 0 ↓ 0
2024-07-01 magnet Охотники на ведьм / Hansel & Gretel: Witch Hunters (2013) BDRip 1080p HEVC от qusi555 | Лицензия | Theatrical Cut 4.48 GB ↑ 0 ↓ 1

Комментарии


Зарегистрируйтесь чтобы добавить комментарий
Торрент клиент
byTorrent - программа для загрузки торрент-файлов.

Скачать byTorrent.exe (1,5 МБ)

Скачать byTorrent.zip (0,6 МБ)

Поддержи torrent.by
российских рублей
(300 российских рублей это 4$)

Обратная связь rss

End game ©