↑↓torrent.by
Поиск
Логин:  Регистрация
Пароль:

Два билета на Марс / Space Oddity (2022) BDRip 1080p от MegaPeer | D, P

download Скачать торрент-файл   magnet Магнитная ссылка Размер: 8.40 GB Добавлен: 2024-06-26 17:00
Пиры будут получены из сети DHT
Последний сидер был замечен 2024-07-13 20:45
«Любовь изменит Вселенную» Информация Название: Два билета на Марс Оригинальное название: Space Oddity Год выхода: 2022 Жанр: Фантастика, мелодрама, комедия Режиссер: Кира Седжвик В ролях: Кайл Аллен, Александра Шипп, Мадлен Брюэр, Саймон Хелберг, Кэрри Престон, Кевин Бейкон, Эндрю Полк, Арден Майрин, Алессандра Ноэль Розенфельд Описание: Алекс решает стать участником экспериментальной программы переселения на Марс и начинает усиленно к ней готовиться. Он рассказывает о своих планах семье и хочет завершить все земные дела до начала своего космического путешествия в один конец. Но его планы нарушает знакомство с Дейзи. Впервые влюбившись так сильно, Алекс начинает сомневаться в том, что смысл его жизни — это чужая далекая планета. Страна: США Студия: The Arlook Group, Big Swing Productions, Rolling Pictures, Unique Features Продолжительность: 01:34:23 Перевод: * Профессиональный (полное дублирование) | Pride Production * Профессиональный (многоголосый, закадровый) | Jaskier Файл Качество: BDRip 1080p Исходник: Space.Oddity.2022.MULTi.COMPLETE.BLURAY-GMA Формат: MKV Кодек: MPEG-4 AVC Видео: 1920x960 (2.000:1), 23.976 fps, MPEG-4 AVC ~ 10.8 Mbps avg, 0.245 bit/pixel Аудио: AC3, 48 kHz, 6 ch, ~448.00 kbps avg | русский | DUB | Аудио: E-AC3, 48 kHz, 6 ch, ~448.00 kbps avg | русский | DUB | Аудио: AC3, 48 kHz, 6 ch, ~384.00 kbps avg | русский | MVO | Аудио: AC3, 48 kHz, 6 ch, ~640.00 kbps avg | английский | Субтитры: Русские (Full), Английские (Full, SDH)
[+] Инфо-файлОбщее Уникальный идентификатор : 191692789852390303614126540008870271942 (0x9036B03BA30304D489DA733455CE5BC6) Полное имя : Space.Oddity.2022.1080p.BluRay.DD.5.1.x264-MegaPeer.mkv Формат : Matroska Версия формата : Version 4 Размер файла : 8,40 Гбайт Продолжительность : 1 ч. 34 мин. Общий битрейт : 12,7 Мбит/сек Частота кадров : 23,976 кадра/сек Название фильма : Два билета на Марс / Space Oddity (2022) от stillet@MegaPeer Дата кодирования : 2024-06-26 05:42:09 UTC Программа кодирования : mkvmerge v15.0.0 ('Duel with the Devil') 64-bit Библиотека кодирования : libebml v1.3.5 + libmatroska v1.4.5 Обложка : Yes Attachments : cover.jpg Видео Идентификатор : 1 Формат : AVC Формат/Информация : Advanced Video Codec Профиль формата : High@L4.1 Настройки формата : CABAC / 4 Ref Frames Параметр CABAC формата : Да Параметр RefFrames формата : 4 кадра Идентификатор кодека : V_MPEG4/ISO/AVC Продолжительность : 1 ч. 34 мин. Битрейт : 10,8 Мбит/сек Ширина : 1 920 пикселей Высота : 960 пикселей Соотношение сторон дисплея : 2,000 Режим частоты кадров : Постоянный Частота кадров : 23,976 (24000/1001) кадра/сек Цветовое пространство : YUV Цветовая субдискретизация : 4:2:0 Битовая глубина : 8 бит Тип развёртки : Прогрессивная Бит/(Пиксели*Кадры) : 0.245 Размер потока : 7,14 Гбайт (85%) Библиотека кодирования : x264 core 164 r3156+57M stillet t_mod_New Параметры библиотеки кодирования : cabac=1 / ref=4 / deblock=1:-3:-3 / analyse=0x3:0x113 / me=umh / subme=10 / psy=1 / fade_compensate=0.00 / psy_rd=1.03:0.01 / mixed_ref=1 / me_range=32 / chroma_me=1 / trellis=2 / 8x8dct=1 / cqm=0 / deadzone=21,11 / fast_pskip=0 / chroma_qp_offset=-3 / threads=12 / lookahead_threads=2 / sliced_threads=0 / nr=0 / decimate=0 / interlaced=0 / bluray_compat=0 / constrained_intra=0 / fgo=0 / bframes=8 / b_pyramid=2 / b_adapt=2 / b_bias=0 / direct=3 / weightb=1 / open_gop=0 / weightp=2 / keyint=240 / keyint_min=24 / scenecut=40 / intra_refresh=0 / rc_lookahead=40 / rc=2pass / mbtree=0 / bitrate=10827 / ratetol=1.0 / qcomp=0.60 / qpmin=0:0:0 / qpmax=69:69:69 / qpstep=4 / cplxblur=20.0 / qblur=0.5 / vbv_maxrate=50000 / vbv_bufsize=62500 / nal_hrd=none / filler=0 / ip_ratio=1.40 / pb_ratio=1.30 / aq=1:1.10 / aq-sensitivity=10.00 / aq-factor=1.00:1.00:1.00 / aq2=0 / aq3=0 Язык : Английский По умолчанию : Да Принудительно : Нет Аудио #1 Идентификатор : 2 Формат : AC-3 Формат/Информация : Audio Coding 3 Коммерческое название : Dolby Digital Идентификатор кодека : A_AC3 Продолжительность : 1 ч. 34 мин. Вид битрейта : Постоянный Битрейт : 448 Кбит/сек Канал(-ы) : 6 каналов Расположение каналов : L R C LFE Ls Rs Частота дискретизации : 48,0 КГц Частота кадров : 31,250 кадров/сек (1536 SPF) Метод сжатия : С потерями Размер потока : 302 Мбайт (4%) Заголовок : DUB | Pride Production Язык : Русский Вид сервиса : Complete Main По умолчанию : Да Принудительно : Да AC3_metadata cmixlev : -3.0 dB surmixlev : -3 dB Аудио #2 Идентификатор : 3 Формат : E-AC-3 Формат/Информация : Enhanced AC-3 Коммерческое название : Dolby Digital Plus Идентификатор кодека : A_EAC3 Продолжительность : 1 ч. 34 мин. Вид битрейта : Постоянный Битрейт : 448 Кбит/сек Канал(-ы) : 6 каналов Расположение каналов : L R C LFE Ls Rs Частота дискретизации : 48,0 КГц Частота кадров : 31,250 кадров/сек (1536 SPF) Метод сжатия : С потерями Размер потока : 302 Мбайт (4%) Заголовок : DUB | Pride Production Язык : Русский Вид сервиса : Complete Main По умолчанию : Нет Принудительно : Нет Аудио #3 Идентификатор : 4 Формат : AC-3 Формат/Информация : Audio Coding 3 Коммерческое название : Dolby Digital Идентификатор кодека : A_AC3 Продолжительность : 1 ч. 34 мин. Вид битрейта : Постоянный Битрейт : 384 Кбит/сек Канал(-ы) : 6 каналов Расположение каналов : L R C LFE Ls Rs Частота дискретизации : 48,0 КГц Частота кадров : 31,250 кадров/сек (1536 SPF) Метод сжатия : С потерями Размер потока : 259 Мбайт (3%) Заголовок : MVO | Jaskier Язык : Русский Вид сервиса : Complete Main По умолчанию : Нет Принудительно : Нет AC3_metadata cmixlev : -3.0 dB surmixlev : -3 dB Аудио #4 Идентификатор : 5 Формат : AC-3 Формат/Информация : Audio Coding 3 Коммерческое название : Dolby Digital Идентификатор кодека : A_AC3 Продолжительность : 1 ч. 34 мин. Вид битрейта : Постоянный Битрейт : 640 Кбит/сек Канал(-ы) : 6 каналов Расположение каналов : L R C LFE Ls Rs Частота дискретизации : 48,0 КГц Частота кадров : 31,250 кадров/сек (1536 SPF) Метод сжатия : С потерями Размер потока : 432 Мбайт (5%) Язык : Английский Вид сервиса : Complete Main По умолчанию : Нет Принудительно : Нет AC3_metadata cmixlev : -3.0 dB surmixlev : -3 dB Текст #1 Идентификатор : 6 Формат : UTF-8 Идентификатор кодека : S_TEXT/UTF8 Идентификатор кодека/Информация : UTF-8 Plain Text Продолжительность : 1 ч. 29 мин. Битрейт : 103 бит/сек Частота кадров : 0,252 кадр/сек Число элементов : 1358 Размер потока : 68,1 КиБ (0%) Заголовок : Full Язык : Русский По умолчанию : Нет Принудительно : Нет Текст #2 Идентификатор : 7 Формат : UTF-8 Идентификатор кодека : S_TEXT/UTF8 Идентификатор кодека/Информация : UTF-8 Plain Text Продолжительность : 1 ч. 33 мин. Битрейт : 68 бит/сек Частота кадров : 0,269 кадр/сек Число элементов : 1508 Размер потока : 46,8 КиБ (0%) Заголовок : Full Язык : Английский По умолчанию : Нет Принудительно : Нет Текст #3 Идентификатор : 8 Формат : UTF-8 Идентификатор кодека : S_TEXT/UTF8 Идентификатор кодека/Информация : UTF-8 Plain Text Продолжительность : 1 ч. 33 мин. Битрейт : 77 бит/сек Частота кадров : 0,306 кадр/сек Число элементов : 1719 Размер потока : 52,9 КиБ (0%) Заголовок : SDH Язык : Английский По умолчанию : Нет Принудительно : Нет Меню 00:00:00.000 : Chapter 01 00:13:39.817 : Chapter 02 00:27:34.653 : Chapter 03 00:40:41.438 : Chapter 04 00:56:15.371 : Chapter 05 01:09:30.166 : Chapter 06 01:30:29.422 : Chapter 07
Релиз:

Всего файлов в раздаче: 1 
Space.Oddity.2022.1080p.BluRay.DD.5.1.x264-MegaPeer.mkv8.40 GB

Похожие раздачи по запросу - Два
2024-06-27 magnet Два билета на Марс / Space Oddity (2022) BDRip 720p от DoMiNo & селезень | D | Pride Production 3.39 GB ↑ 0 ↓ 0
2024-06-27 magnet Два билета на Марс / Space Oddity (2022) BDRip от DoMiNo & селезень | D | Pride Production 1.46 GB ↑ 0 ↓ 0
2024-06-26 magnet Два билета на Марс / Space Oddity (2022) BDRip от MegaPeer | D 1.46 GB ↑ 0 ↓ 0
2024-06-26 magnet Два билета на Марс / Space Oddity (2022) BDRip-AVC от New-Team | D, P 2.17 GB ↑ 0 ↓ 0

Комментарии


Зарегистрируйтесь чтобы добавить комментарий
Торрент клиент
byTorrent - программа для загрузки торрент-файлов.

Скачать byTorrent.exe (1,5 МБ)

Скачать byTorrent.zip (0,6 МБ)

Поддержи torrent.by
российских рублей
(300 российских рублей это 4$)

Обратная связь rss

End game ©