↑↓torrent.by
Поиск
Логин:  Регистрация
Пароль:

Два билета на Марс / Space Oddity (2022) BDRip 720p от DoMiNo & селезень | D | Pride Production

download Скачать торрент-файл   magnet Магнитная ссылка Размер: 3.39 GB Добавлен: 2024-06-27 05:00
Пиры будут получены из сети DHT
Последний сидер был замечен 2024-07-04 20:10
Информация о фильме Название: Два билета на Марс Оригинальное название: Space Oddity Год выпуска: 2022 Жанр: Комедия, фантастика, мелодрама Режиссер: Кира Седжвик / Kyra Sedgwick В ролях: Кайл Аллен, Александра Шипп, Мадлен Брюэр, Саймон Хелберг, Кэрри Престон, Кевин Бейкон, Эндрю Полк, Арден Майрин, Алессандра Ноэль Розенфельд, Питер МакСвиггин, Джим Бойд, Лайам Андерсон, Тони Эстрелла, Памела Джейн Морган, Кристо Нил Джексон О фильме: Алекс всем сердцем мечтает о космических путешествиях и исследованиях далёких планет. Однажды он сообщает своим близким, что полетит на Марс с билетом в один конец. Его семья напугана и сбита с толку. Что стоит за его решением? Выпущено: США, Arlook Group, The, Big Swing Productions, Rolling Pictures, Unique Features Продолжительность: 01:34:23 Перевод: Дублированный | Pride Production Субтитры: Русские (2x Full), английские Файл Формат: Matroska Качество: BDRip 720p Исходник: Space Oddity 2022 1080p Blu-ray Remux MPEG-2 DTS-HD MA 5 1-HDT Видео: 1280x640 at 23.976 fps, x264@L4.1, ~4048 kbps Аудио 1: AC3, 6 ch, ~448 kbps - | Русский | Аудио 2: AC3, 6 ch, ~640 kbps - | Английский | Формат субтитров: softsub (SRT)
[+] M/Ix264 : frame I:1385 Avg QP:14.19 size:125876 x264 : frame P:28942 Avg QP:15.48 size: 46701 x264 : frame B:105442 Avg QP:17.64 size: 12701 General Unique ID : 84540178936616977560884249589283601224 (0x3F99D8A155F566387470F729F968BB48) Complete name : U:Space.Oddity.2022.DUB.BDRip.720p.x264.seleZen.mkv Format : Matroska Format version : Version 4 File size : 3.39 GiB Duration : 1 h 34 min Overall bit rate : 5 138 kb/s Frame rate : 23.976 FPS Movie name : Space.Oddity.2022.DUB.BDRip.720p.x264.seleZen Encoded date : 2024-06-26 11:43:52 UTC Writing application : mkvmerge v85.0 ('Shame For You') 64-bit Writing library : libebml v1.4.5 + libmatroska v1.7.1 Cover : Yes Attachments : cover.jpg / small_cover.jpg Video ID : 1 Format : AVC Format/Info : Advanced Video Codec Format profile : High@L4.1 Format settings : CABAC / 10 Ref Frames Format settings, CABAC : Yes Format settings, Reference : 10 frames Codec ID : V_MPEG4/ISO/AVC Duration : 1 h 34 min Bit rate : 4 048 kb/s Width : 1 280 pixels Height : 640 pixels Display aspect ratio : 2.000 Frame rate mode : Constant Frame rate : 23.976 (24000/1001) FPS Color space : YUV Chroma subsampling : 4:2:0 Bit depth : 8 bits Scan type : Progressive Bits/(Pixel*Frame) : 0.206 Stream size : 2.67 GiB (79%) Title : -=DoMiNo=- Writing library : x264 core 164 r3191 -DoMiNo Encoding settings : cabac=1 / ref=10 / deblock=1:-3:-2 / analyse=0x3:0x133 / me=umh / subme=10 / psy=1 / psy_rd=1.07:0.05 / mixed_ref=1 / me_range=32 / chroma_me=1 / trellis=2 / 8x8dct=1 / cqm=0 / deadzone=21,11 / fast_pskip=0 / chroma_qp_offset=-3 / threads=20 / lookahead_threads=5 / sliced_threads=0 / nr=0 / decimate=1 / interlaced=0 / bluray_compat=0 / constrained_intra=0 / bframes=12 / b_pyramid=2 / b_adapt=2 / b_bias=0 / direct=3 / weightb=1 / open_gop=0 / weightp=2 / keyint=240 / keyint_min=23 / scenecut=40 / intra_refresh=0 / rc_lookahead=60 / rc=crf / mbtree=0 / crf=16.8 / qcomp=0.60 / qpmin=0 / qpmax=69 / qpstep=4 / vbv_maxrate=50000 / vbv_bufsize=62500 / crf_max=0.0 / nal_hrd=none / filler=0 / ip_ratio=1.40 / pb_ratio=1.30 / aq=3:0.80 Language : English Default : Yes Forced : No Color range : Limited Color primaries : BT.709 Transfer characteristics : BT.709 Matrix coefficients : BT.709 Audio #1 ID : 2 Format : AC-3 Format/Info : Audio Coding 3 Commercial name : Dolby Digital Codec ID : A_AC3 Duration : 1 h 34 min Bit rate mode : Constant Bit rate : 448 kb/s Channel(s) : 6 channels Channel layout : L R C LFE Ls Rs Sampling rate : 48.0 kHz Frame rate : 31.250 FPS (1536 SPF) Compression mode : Lossy Stream size : 302 MiB (9%) Title : Дублированный -Pride Production Language : Russian Service kind : Complete Main Default : Yes Forced : No Dialog Normalization : -26 dB compr : -0.28 dB cmixlev : -3.0 dB surmixlev : -3 dB dmixmod : Lo/Ro ltrtcmixlev : -3.0 dB ltrtsurmixlev : -3.0 dB lorocmixlev : -3.0 dB lorosurmixlev : -3.0 dB dialnorm_Average : -26 dB dialnorm_Minimum : -26 dB dialnorm_Maximum : -26 dB Audio #2 ID : 3 Format : AC-3 Format/Info : Audio Coding 3 Commercial name : Dolby Digital Codec ID : A_AC3 Duration : 1 h 34 min Bit rate mode : Constant Bit rate : 640 kb/s Channel(s) : 6 channels Channel layout : L R C LFE Ls Rs Sampling rate : 48.0 kHz Frame rate : 31.250 FPS (1536 SPF) Compression mode : Lossy Stream size : 432 MiB (12%) Title : Original Language : English Service kind : Complete Main Default : No Forced : No Dialog Normalization : -31 dB cmixlev : -4.5 dB surmixlev : -6 dB dialnorm_Average : -31 dB dialnorm_Minimum : -31 dB dialnorm_Maximum : -31 dB Text #1 ID : 4 Format : UTF-8 Codec ID : S_TEXT/UTF8 Codec ID/Info : UTF-8 Plain Text Duration : 1 h 29 min Bit rate : 111 b/s Frame rate : 0.298 FPS Count of elements : 1602 Stream size : 73.1 KiB (0%) Title : Full 1 Language : Russian Default : No Forced : No Text #2 ID : 5 Format : UTF-8 Codec ID : S_TEXT/UTF8 Codec ID/Info : UTF-8 Plain Text Duration : 1 h 29 min Bit rate : 103 b/s Frame rate : 0.252 FPS Count of elements : 1358 Stream size : 68.1 KiB (0%) Title : Full 2 Language : Russian Default : No Forced : No Text #3 ID : 6 Format : UTF-8 Codec ID : S_TEXT/UTF8 Codec ID/Info : UTF-8 Plain Text Duration : 1 h 33 min Bit rate : 68 b/s Frame rate : 0.269 FPS Count of elements : 1508 Stream size : 46.8 KiB (0%) Title : Full Language : English Default : No Forced : No Text #4 ID : 7 Format : UTF-8 Codec ID : S_TEXT/UTF8 Codec ID/Info : UTF-8 Plain Text Duration : 1 h 33 min Bit rate : 77 b/s Frame rate : 0.306 FPS Count of elements : 1719 Stream size : 52.9 KiB (0%) Title : SDH Language : English Default : No Forced : No Menu 00:00:00.000 : en:Chapter 01 00:13:39.819 : en:Chapter 02 00:27:34.653 : en:Chapter 03 00:40:41.439 : en:Chapter 04 00:56:15.372 : en:Chapter 05 01:09:30.166 : en:Chapter 06 01:30:29.424 : en:Chapter 07
Релиз: Присоединяйся к: Кликай на баннеры.

Всего файлов в раздаче: 1 
Space.Oddity.2022.DUB.BDRip.720p.x264.seleZen.mkv3.39 GB

Похожие раздачи по запросу - Два
2024-06-27 magnet Два билета на Марс / Space Oddity (2022) BDRip от DoMiNo & селезень | D | Pride Production 1.46 GB ↑ 0 ↓ 0
2024-06-26 magnet Два билета на Марс / Space Oddity (2022) BDRip 1080p от MegaPeer | D, P 8.40 GB ↑ 0 ↓ 0
2024-06-26 magnet Два билета на Марс / Space Oddity (2022) BDRip от MegaPeer | D 1.46 GB ↑ 0 ↓ 0
2024-06-26 magnet Два билета на Марс / Space Oddity (2022) BDRip-AVC от New-Team | D, P 2.17 GB ↑ 0 ↓ 0

Комментарии


Зарегистрируйтесь чтобы добавить комментарий
Торрент клиент
byTorrent - программа для загрузки торрент-файлов.

Скачать byTorrent.exe (1,5 МБ)

Скачать byTorrent.zip (0,6 МБ)

Поддержи torrent.by
российских рублей
(300 российских рублей это 4$)

Обратная связь rss

End game ©