↑↓torrent.by
Поиск
Логин:  Регистрация
Пароль:

Фуриоса: Хроники Безумного Макса / Фуріоза: Шалений Макс. Сага / Furiosa: A Mad Max Saga (2024) WEB-DL-HEVC 2160p | 4K | HDR | Dolby Vision Profile 8 | D | UKR

download Скачать торрент-файл   magnet Магнитная ссылка Размер: 26.21 GB Раздают: 0 Качают: 2 Добавлен: 2024-06-27 05:00
Пиры будут получены из сети DHT
Последний сидер был замечен 2024-07-14 14:51
Информация о фильме Название: Фуриоса: Хроники Безумного Макса Оригинальное название: Furiosa: A Mad Max Saga Год выхода: 2024 Жанр: фантастика, боевик Режиссер: Джордж Миллер В ролях: Крис Хемсворт, Аня Тейлор-Джой, Алила Браун, Том Бёрк, Нэйтан Джонс, Джош Хелман, Чарли Фрейзер, Лейчи Халм, Джон Ховард, Джордж Шевцов О фильме: В постапокалиптической пустоши Австралии существует живописный оазис, известный как Зеленые Земли Тысячи матерей, где проживает юная Фуриоса. Однажды по неосторожности она попадает в руки главаря банды байкеров Дементуса и становится свидетельницей смерти матери, после чего оказывается продана Несмертному Джо — лидеру культа фанатиков в неприступной Цитадели. Годы спустя повзрослевшая Фуриоса, пережившая множество испытаний судьбы, собирается отомстить Дементусу, чтобы затем сбежать через пустошь в родные края. Страна: Австралия, США Продолжительность: 02:28:11 Перевод: Дублированный (Украинский) Файл Кодек: H.265 Качество: WEB-DL 2160p Видео: HEVC, HDR, Dolby Vision, 3840x1608, 23.976 fps, 24,2 Mb/s Аудио 1: E-AC3, 48.0 kHz, 6 ch, 384 kb/s | UKR Аудио 2: E-AC3 JOC, 48.0 kHz, 6 ch, 768 kb/s | ENG Субтитры: украинские (forced), английские (full, SDH)
[+] MIFormat : Matroska Format version : Version 4 File size : 26.2 GiB Duration : 2 h 28 min Overall bit rate : 25.3 Mb/s Frame rate : 23.976 FPS Encoded date : 2024-06-26 07:24:40 UTC Writing application : mkvmerge v84.0 ('Sleeper') 64-bit Writing library : libebml v1.4.5 + libmatroska v1.7.1 Video ID : 1 Format : HEVC Format/Info : High Efficiency Video Coding Format profile : Main 10@L5@High HDR format : Dolby Vision, Version 1.0, dvhe.08.06, BL+RPU, HDR10 compatible / SMPTE ST 2094 App 4, Version 1, HDR10+ Profile B compatible Codec ID : V_MPEGH/ISO/HEVC Duration : 2 h 28 min Bit rate : 24.2 Mb/s Width : 3 840 pixels Height : 1 608 pixels Display aspect ratio : 2.40:1 Frame rate mode : Constant Frame rate : 23.976 (24000/1001) FPS Color space : YUV Chroma subsampling : 4:2:0 (Type 2) Bit depth : 10 bits Bits/(Pixel*Frame) : 0.163 Stream size : 25.0 GiB (95%) Language : English Default : Yes Forced : No Color range : Limited Color primaries : BT.2020 Transfer characteristics : PQ Matrix coefficients : BT.2020 non-constant Mastering display color pri : BT.2020 Mastering display luminance : min: 0.0050 cd/m2, max: 1000 cd/m2 Maximum Content Light Level : 2636 cd/m2 Maximum Frame-Average Light : 747 cd/m2 Audio #1 ID : 2 Format : E-AC-3 Format/Info : Enhanced AC-3 Commercial name : Dolby Digital Plus Codec ID : A_EAC3 Duration : 2 h 28 min Bit rate mode : Constant Bit rate : 384 kb/s Channel(s) : 6 channels Channel layout : L R C LFE Ls Rs Sampling rate : 48.0 kHz Frame rate : 31.250 FPS (1536 SPF) Compression mode : Lossy Stream size : 407 MiB (2%) Title : Дубляж Language : Ukrainian Service kind : Complete Main Default : Yes Forced : No Audio #2 ID : 3 Format : E-AC-3 JOC Format/Info : Enhanced AC-3 with Joint Object Coding Commercial name : Dolby Digital Plus with Dolby Atmos Codec ID : A_EAC3 Duration : 2 h 28 min Bit rate mode : Constant Bit rate : 768 kb/s Channel(s) : 6 channels Channel layout : L R C LFE Ls Rs Sampling rate : 48.0 kHz Frame rate : 31.250 FPS (1536 SPF) Compression mode : Lossy Stream size : 814 MiB (3%) Title : Original Language : English Service kind : Complete Main Default : No Forced : No Complexity index : 16 Number of dynamic objects : 15 Bed channel count : 1 channel Bed channel configuration : LFE Text #1 ID : 4 Format : UTF-8 Codec ID : S_TEXT/UTF8 Codec ID/Info : UTF-8 Plain Text Duration : 2 h 0 min Bit rate : 0 b/s Frame rate : 0.001 FPS Count of elements : 10 Stream size : 412 Bytes (0%) Title : Forced Language : Ukrainian Default : Yes Forced : No Text #2 ID : 5 Format : UTF-8 Codec ID : S_TEXT/UTF8 Codec ID/Info : UTF-8 Plain Text Duration : 2 h 16 min Bit rate : 28 b/s Frame rate : 0.128 FPS Count of elements : 1050 Stream size : 28.1 KiB (0%) Title : Full Language : English Default : No Forced : No Text #3 ID : 6 Format : UTF-8 Codec ID : S_TEXT/UTF8 Codec ID/Info : UTF-8 Plain Text Duration : 2 h 17 min Bit rate : 36 b/s Frame rate : 0.170 FPS Count of elements : 1401 Stream size : 36.7 KiB (0%) Title : SDH Language : English Default : No Forced : No Menu 00:00:00.000 : en:Chapter 01 00:10:19.369 : en:Chapter 02 00:20:10.627 : en:Chapter 03 00:29:00.240 : en:Chapter 04 00:40:06.656 : en:Chapter 05 00:53:12.692 : en:Chapter 06 01:00:35.635 : en:Chapter 07 01:19:05.745 : en:Chapter 08 01:28:55.919 : en:Chapter 09 01:40:17.684 : en:Chapter 10 01:49:44.751 : en:Chapter 11 01:59:16.906 : en:Chapter 12 02:06:08.693 : en:Chapter 13 02:17:44.681 : en:Chapter 14
[+] Скриншоты

Всего файлов в раздаче: 1 
Furiosa.A.Mad.Max.Saga.2024.2160p.REPACK.WEB-DL.DDP5.1.Atmos.DV.HDR.H.265-FLUX.mkv26.21 GB

Похожие раздачи по запросу - Фуриоса
2024-07-15 magnet Фуриоса: Хроники Безумного Макса / Фуріоза: Шалений Макс. Сага / Furiosa: A Mad Max Saga (2024) WEB-DL-HEVC 2160p | 4K | SDR | D | UKR 26.45 GB ↑ 0 ↓ 2
2024-07-06 magnet Фуриоса: Хроники Безумного Макса / Furiosa: A Mad Max Saga (2024) UHD WEB-DL 2160p | 4K | HDR | Dolby Vision Profile 8 | D, P, A 31.04 GB ↑ 3 ↓ 11
2024-07-03 magnet Фуриоса: Хроники Безумного Макса / Furiosa: A Mad Max Saga (2024) WEB-DLRip-AVC | КПК | D, P | Red Head Sound, HDrezka Studio 805.80 MB ↑ 0 ↓ 0
2024-07-03 magnet Фуриоса: Хроники Безумного Макса / Furiosa: A Mad Max Saga [2024, фантастика, боевик, WEB-DLRip-AVC] Dub 2.18 GB ↑ 0 ↓ 1
2024-07-01 magnet Фуриоса: Хроники Безумного Макса / Furiosa: A Mad Max Saga (2024) WEB-DLRip 1080p | D, P, A | Movie Dubbing, RHS, LostFilm, HDrezka, Jaskier, TVShows, Яроцкий 22.53 GB ↑ 1 ↓ 6
2024-06-30 magnet Фуриоса: Хроники Безумного Макса / Furiosa: A Mad Max Saga (2024) WEB-DLRip от DoMiNo & селезень | D | Red Head Sound 1.47 GB ↑ 0 ↓ 5
2024-06-30 magnet Фуриоса: Хроники Безумного Макса / Furiosa: A Mad Max Saga (2024) UHD WEB-DL HEVC 2160p | 4K | Dolby Vision TV | D | Movie Dubbing, Red Head Sound 27.00 GB ↑ 0 ↓ 0

Комментарии


Зарегистрируйтесь чтобы добавить комментарий
Торрент клиент
byTorrent - программа для загрузки торрент-файлов.

Скачать byTorrent.exe (1,5 МБ)

Скачать byTorrent.zip (0,6 МБ)

Поддержи torrent.by
российских рублей
(300 российских рублей это 4$)

Обратная связь rss

End game ©