↑↓torrent.by
Поиск
Логин:  Регистрация
Пароль:

Красная Шапочка находит труп / Akazukin, tabi no tochu de shitai to deau / Once Upon a Crime (2023) BDRip 1080p от MegaPeer | P | TVShows

download Скачать торрент-файл   magnet Магнитная ссылка Размер: 9.74 GB Добавлен: 2024-06-27 05:00
Пиры будут получены из сети DHT
Последний сидер был замечен 2024-06-30 00:20
Информация Название: Красная Шапочка находит труп Оригинальное название: Akazukin, tabi no tochu de shitai to deau / Once Upon a Crime Год выхода: 2023 Жанр: Детектив, комедия, фэнтези Режиссер: Юити Фукуда В ролях: Канна Хасимото, Юко Араки, Таканори Ивата, Дзиро Сато, Цуёси Муро, Нацуна Ватанабэ, Юми Вакацуки, Мирэи Киритани, Масаки Кадзи, Томохару Хасэгава Описание: Красная Шапочка путешествует по сказочной стране и встречает несчастную Золушку, которая мечтает отправиться на королевский бал. С помощью двух удачно подвернувшихся волшебниц девушки заполучают шикарные наряды, хрустальные туфельки, карету из тыквы и крысу-кучера. По дороге во дворец они сбивают внезапно оказавшегося на лесной дороге королевского парикмахера, но обладающая незаурядными дедуктивными способностями Красная Шапочка понимает, что кто-то подбросил труп, чтобы скрыть убийство. На балу принц приглашает Золушку на танец, но прекрасный вечер испорчен известием о смерти парикмахера. Король приказывает найти убийцу, под подозрением — все гости мероприятия. Страна: Япония Студия: Credeus, TV Asahi Productions Продолжительность: 01:45:15 Перевод: Профессиональный (многоголосый, закадровый) | TVShows Файл Качество: BDRip 1080p Исходник: Once.Upon.a.Crime.2023.1080p.BluRay.REMUX.AVC.DUAL.NAN0 Формат: MKV Кодек: MPEG-4 AVC Видео: 1920x1080 (16:9), 23.976 fps, MPEG-4 AVC ~ 11.6 Mbps avg, 0.233 bit/pixel Аудио: AC3, 48 kHz, 6 ch, ~384.00 kbps avg | русский | MVO | Аудио: AC3, 48 kHz, 6 ch, ~640.00 kbps avg | английский | Аудио: AC3, 48 kHz, 6 ch, ~640.00 kbps avg | японский | Субтитры: Русские (Full), Английские (Full, SDH), Японские (Full)
[+] Инфо-файлОбщее Уникальный идентификатор : 211268209994917396803362434853043179873 (0x9EF0C6F618A174C49B6924C351081161) Полное имя : Once.Upon.a.Crime.2023.1080p.BluRay.DD.5.1.x264-MegaPeer.mkv Формат : Matroska Версия формата : Version 4 Размер файла : 9,74 Гбайт Продолжительность : 1 ч. 45 мин. Общий битрейт : 13,2 Мбит/сек Частота кадров : 23,976 кадра/сек Название фильма : Красная Шапочка находит труп / Akazukin, tabi no tochu de shitai to deau / Once Upon a Crime (2023) от stillet@MegaPeer Дата кодирования : 2024-06-26 15:47:29 UTC Программа кодирования : mkvmerge v15.0.0 ('Duel with the Devil') 64-bit Библиотека кодирования : libebml v1.3.5 + libmatroska v1.4.5 Обложка : Yes Attachments : cover.jpg Видео Идентификатор : 1 Формат : AVC Формат/Информация : Advanced Video Codec Профиль формата : High@L4.1 Настройки формата : CABAC / 4 Ref Frames Параметр CABAC формата : Да Параметр RefFrames формата : 4 кадра Идентификатор кодека : V_MPEG4/ISO/AVC Продолжительность : 1 ч. 45 мин. Битрейт : 11,6 Мбит/сек Ширина : 1 920 пикселей Высота : 1 080 пикселей Соотношение сторон дисплея : 16:9 Режим частоты кадров : Постоянный Частота кадров : 23,976 (24000/1001) кадра/сек Цветовое пространство : YUV Цветовая субдискретизация : 4:2:0 Битовая глубина : 8 бит Тип развёртки : Прогрессивная Бит/(Пиксели*Кадры) : 0.233 Размер потока : 8,51 Гбайт (87%) Библиотека кодирования : x264 core 164 r3156+57M stillet t_mod_New Параметры библиотеки кодирования : cabac=1 / ref=4 / deblock=1:-3:-3 / analyse=0x3:0x113 / me=umh / subme=10 / psy=1 / fade_compensate=0.00 / psy_rd=1.03:0.02 / mixed_ref=1 / me_range=32 / chroma_me=1 / trellis=2 / 8x8dct=1 / cqm=0 / deadzone=21,11 / fast_pskip=0 / chroma_qp_offset=-3 / threads=12 / lookahead_threads=3 / sliced_threads=0 / nr=0 / decimate=0 / interlaced=0 / bluray_compat=0 / constrained_intra=0 / fgo=0 / bframes=10 / b_pyramid=2 / b_adapt=2 / b_bias=0 / direct=3 / weightb=1 / open_gop=0 / weightp=2 / keyint=240 / keyint_min=24 / scenecut=40 / intra_refresh=0 / rc_lookahead=40 / rc=2pass / mbtree=0 / bitrate=11588 / ratetol=1.0 / qcomp=0.60 / qpmin=0:0:0 / qpmax=69:69:69 / qpstep=4 / cplxblur=20.0 / qblur=0.5 / vbv_maxrate=50000 / vbv_bufsize=62500 / nal_hrd=none / filler=0 / ip_ratio=1.40 / pb_ratio=1.30 / aq=1:1.10 / aq-sensitivity=10.00 / aq-factor=1.00:1.00:1.00 / aq2=0 / aq3=0 Язык : Английский По умолчанию : Да Принудительно : Нет Аудио #1 Идентификатор : 2 Формат : AC-3 Формат/Информация : Audio Coding 3 Коммерческое название : Dolby Digital Идентификатор кодека : A_AC3 Продолжительность : 1 ч. 45 мин. Вид битрейта : Постоянный Битрейт : 384 Кбит/сек Канал(-ы) : 6 каналов Расположение каналов : L R C LFE Ls Rs Частота дискретизации : 48,0 КГц Частота кадров : 31,250 кадров/сек (1536 SPF) Метод сжатия : С потерями Размер потока : 289 Мбайт (3%) Заголовок : MVO | TVShows Язык : Русский Вид сервиса : Complete Main По умолчанию : Да Принудительно : Да AC3_metadata cmixlev : -3.0 dB surmixlev : -3 dB Аудио #2 Идентификатор : 3 Формат : AC-3 Формат/Информация : Audio Coding 3 Коммерческое название : Dolby Digital Идентификатор кодека : A_AC3 Продолжительность : 1 ч. 45 мин. Вид битрейта : Постоянный Битрейт : 640 Кбит/сек Канал(-ы) : 6 каналов Расположение каналов : L R C LFE Ls Rs Частота дискретизации : 48,0 КГц Частота кадров : 31,250 кадров/сек (1536 SPF) Метод сжатия : С потерями Размер потока : 482 Мбайт (5%) Язык : Английский Вид сервиса : Complete Main По умолчанию : Нет Принудительно : Нет AC3_metadata cmixlev : -3.0 dB surmixlev : -3 dB Аудио #3 Идентификатор : 4 Формат : AC-3 Формат/Информация : Audio Coding 3 Коммерческое название : Dolby Digital Идентификатор кодека : A_AC3 Продолжительность : 1 ч. 45 мин. Вид битрейта : Постоянный Битрейт : 640 Кбит/сек Канал(-ы) : 6 каналов Расположение каналов : L R C LFE Ls Rs Частота дискретизации : 48,0 КГц Частота кадров : 31,250 кадров/сек (1536 SPF) Метод сжатия : С потерями Размер потока : 482 Мбайт (5%) Язык : Японский Вид сервиса : Complete Main По умолчанию : Нет Принудительно : Нет AC3_metadata cmixlev : -3.0 dB surmixlev : -3 dB Текст #1 Идентификатор : 5 Формат : UTF-8 Идентификатор кодека : S_TEXT/UTF8 Идентификатор кодека/Информация : UTF-8 Plain Text Продолжительность : 1 ч. 45 мин. Битрейт : 75 бит/сек Частота кадров : 0,197 кадр/сек Число элементов : 1245 Размер потока : 57,9 КиБ (0%) Заголовок : Full Язык : Русский По умолчанию : Нет Принудительно : Нет Текст #2 Идентификатор : 6 Формат : UTF-8 Идентификатор кодека : S_TEXT/UTF8 Идентификатор кодека/Информация : UTF-8 Plain Text Продолжительность : 1 ч. 40 мин. Битрейт : 65 бит/сек Частота кадров : 0,236 кадр/сек Число элементов : 1426 Размер потока : 48,4 КиБ (0%) Заголовок : Full Язык : Английский По умолчанию : Нет Принудительно : Нет Текст #3 Идентификатор : 7 Формат : UTF-8 Идентификатор кодека : S_TEXT/UTF8 Идентификатор кодека/Информация : UTF-8 Plain Text Продолжительность : 1 ч. 40 мин. Битрейт : 73 бит/сек Частота кадров : 0,271 кадр/сек Число элементов : 1638 Размер потока : 54,0 КиБ (0%) Заголовок : SDH Язык : Английский По умолчанию : Нет Принудительно : Нет Текст #4 Идентификатор : 8 Формат : UTF-8 Идентификатор кодека : S_TEXT/UTF8 Идентификатор кодека/Информация : UTF-8 Plain Text Продолжительность : 1 ч. 44 мин. Битрейт : 67 бит/сек Частота кадров : 0,235 кадр/сек Число элементов : 1481 Размер потока : 51,6 КиБ (0%) Заголовок : Full Язык : Японский По умолчанию : Нет Принудительно : Нет Меню 00:00:00.000 : en:Chapter 01 00:01:14.616 : en:Chapter 02 00:01:22.416 : en:Chapter 03 00:09:53.259 : en:Chapter 04 00:19:32.380 : en:Chapter 05 00:25:12.636 : en:Chapter 06 00:33:13.158 : en:Chapter 07 00:41:09.676 : en:Chapter 08 00:53:03.764 : en:Chapter 09 01:02:38.588 : en:Chapter 10 01:07:11.194 : en:Chapter 11 01:16:19.283 : en:Chapter 12 01:31:46.584 : en:Chapter 13 01:40:59.470 : en:Chapter 14
Релиз:

Всего файлов в раздаче: 1 
Once.Upon.a.Crime.2023.1080p.BluRay.DD.5.1.x264-MegaPeer.mkv9.74 GB

Похожие раздачи по запросу - Красная
2024-07-19 magnet Дмитрий Акимов - Калина красная (1997) MP3 67.55 MB ↑ 0 ↓ 0
2024-07-18 magnet Павел Барчук - Красная машина 1, Юниор из будущего (2024) МР3 292.06 MB ↑ 0 ↓ 0
2024-07-18 magnet Павел Барчук - Красная машина 3, Юниор из будущего (2024) МР3 248.23 MB ↑ 0 ↓ 0
2024-07-18 magnet Павел Барчук - Красная машина 2, Юниор из будущего (2024) МР3 263.17 MB ↑ 0 ↓ 0
2024-06-27 magnet Красная Шапочка находит труп / Akazukin, tabi no tochu de shitai to deau / Once Upon a Crime (2023) BDRip от MegaPeer | P | TVShows 1.46 GB ↑ 0 ↓ 0
2024-06-13 magnet Следствие ведет КГБ. Красная помада (2023) IPTV 490.84 MB ↑ 0 ↓ 0
2024-05-10 magnet Парад Победы. Москва. Красная площадь [эфир от 09.05] (2024) HDTVRip 1.25 GB ↑ 0 ↓ 0

Комментарии


Зарегистрируйтесь чтобы добавить комментарий
Торрент клиент
byTorrent - программа для загрузки торрент-файлов.

Скачать byTorrent.exe (1,5 МБ)

Скачать byTorrent.zip (0,6 МБ)

Поддержи torrent.by
российских рублей
(300 российских рублей это 4$)

Обратная связь rss

End game ©