↑↓torrent.by
Поиск
Логин:  Регистрация
Пароль:

Чарли Пуля / Fast Charlie (2023) BDRip 1080p от Generalfilm | D

download Скачать торрент-файл   magnet Магнитная ссылка Размер: 3.44 GB Добавлен: 2024-06-27 05:00
Пиры будут получены из сети DHT
Последний сидер был замечен 2024-07-02 19:57
Чарли Пуля / Fast Charlie Информация о фильме Год выпуска: 2023 Страна: США Студия: Ashland Hill Media Finance, BCD Travel, Boomtown Media Partners, Foresight Unlimited, Golden Liberty Films, Streamline Global Group, UTA Independent Film Group Жанр: боевик, триллер, драма, криминал, детектив Перевод: Дублированный | Pride Production Продолжительность: 01:30:23 Субтитры: Отсутствуют Режиссер: Филлип Нойс В ролях: Пирс Броснан, Морена Баккарин, Джеймс Каан, Гбенга Акиннагбе, Колин Сэлмон, Мэтт Кук, Бреннан Кил Кук, Тоби Хасс, Фредрик Лене, Мези Этвуд, Линдси Дж. Смит, Шэрон Глесс, Джейк Гродник О фильме: Чарли Свифт по прозвищу Пуля — хладнокровный киллер и мастер по решению сложных проблем. Много лет он верой и правдой служит своему боссу, мафиози Стэну, пока от того не решает избавиться конкурент. Избежавший расправы герой встает на путь мести, заручившись неожиданной поддержкой Марси — бывшей жены бандита, некогда погибшего от рук Чарли. Качество: BDRip 1080p Формат: MKV Видео: MPEG-4 AVC, 1920x800 (2.40:1), 23,976 fps, 5000 Kbit/s (0.136 bit/pixel) Аудио: русский, AC3, 5.1, 48 kHz, 448 kbps | Pride Production Навигация по главам: есть Релиз от:
[+] ОтчетМедиаИнфо General Unique ID : 194712917923231105315810037720946481527 (0x927C580B0EEDB4FC94BC26473A5A9977) Complete name : E:GFFast.Charlie.2023.BDRip.1080p.Rip.by.HardwareMining.R.G.Generalfilm.mkv Format : Matroska Format version : Version 4 File size : 3.44 GiB Duration : 1 h 30 min Overall bit rate : 5 449 kb/s Frame rate : 23.976 FPS Movie name : Fast.Charlie.2023.BDRip.1080p.Rip.by.HardwareMining.R.G.Generalfilm Encoded date : 2024-06-25 15:48:41 UTC Writing application : mkvmerge v6.8.0 ('Theme for Great Cities') 32bit built on Mar 2 2014 21:27:07 Writing library : libebml v1.3.0 + libmatroska v1.4.1 Cover : Yes Attachments : cover0.png Video ID : 1 Format : AVC Format/Info : Advanced Video Codec Format profile : High@L4.1 Format settings : CABAC / 4 Ref Frames Format settings, CABAC : Yes Format settings, Reference frames : 4 frames Codec ID : V_MPEG4/ISO/AVC Duration : 1 h 30 min Bit rate : 5 000 kb/s Width : 1 920 pixels Height : 800 pixels Display aspect ratio : 2.40:1 Frame rate mode : Constant Frame rate : 23.976 FPS Color space : YUV Chroma subsampling : 4:2:0 Bit depth : 8 bits Scan type : Progressive Bits/(Pixel*Frame) : 0.136 Stream size : 3.09 GiB (90%) Writing library : x264 core 130 r2273 b3065e6 Encoding settings : cabac=1 / ref=4 / deblock=1:-2:-1 / analyse=0x3:0x133 / me=umh / subme=10 / psy=1 / psy_rd=1.00:0.08 / mixed_ref=1 / me_range=32 / chroma_me=1 / trellis=2 / 8x8dct=1 / cqm=0 / deadzone=21,11 / fast_pskip=0 / chroma_qp_offset=-3 / threads=48 / lookahead_threads=6 / sliced_threads=0 / nr=0 / decimate=1 / interlaced=0 / bluray_compat=0 / constrained_intra=0 / bframes=11 / b_pyramid=2 / b_adapt=2 / b_bias=0 / direct=3 / weightb=1 / open_gop=0 / weightp=2 / keyint=250 / keyint_min=25 / scenecut=40 / intra_refresh=0 / rc=2pass / mbtree=0 / bitrate=5000 / ratetol=1.0 / qcomp=0.60 / qpmin=0 / qpmax=69 / qpstep=4 / cplxblur=20.0 / qblur=0.5 / ip_ratio=1.40 / pb_ratio=1.30 / aq=2:1.00 Language : English Default : Yes Forced : No Color range : Limited Color primaries : BT.709 Transfer characteristics : BT.709 Matrix coefficients : BT.709 Audio ID : 2 Format : E-AC-3 Format/Info : Enhanced AC-3 Commercial name : Dolby Digital Plus Codec ID : A_EAC3 Duration : 1 h 30 min Bit rate mode : Constant Bit rate : 448 kb/s Channel(s) : 6 channels Channel layout : L R C LFE Ls Rs Sampling rate : 48.0 kHz Frame rate : 31.250 FPS (1536 SPF) Compression mode : Lossy Stream size : 290 MiB (8%) Title : Dub | Pride Production Language : Russian Service kind : Complete Main Default : Yes Forced : No Dialog Normalization : -23 dB compr : -0.28 dB dmixmod : Lo/Ro ltrtcmixlev : -3.0 dB ltrtsurmixlev : -3.0 dB lorocmixlev : -3.0 dB lorosurmixlev : -3.0 dB dialnorm_Average : -23 dB dialnorm_Minimum : -23 dB dialnorm_Maximum : -23 dB Menu 00:00:00.000 : en:Глава 01 00:12:31.959 : en:Глава 02 00:24:14.119 : en:Глава 03 00:38:13.833 : en:Глава 04 00:52:06.706 : en:Глава 05 01:04:03.089 : en:Глава 06 01:14:17.202 : en:Глава 07 01:25:15.193 : en:Глава 08
[+] Скриншоты

Всего файлов в раздаче: 1 
Fast.Charlie.2023.BDRip.1080p.Rip.by.HardwareMining.R.G.Generalfilm.mkv3.44 GB

Похожие раздачи по запросу - Чарли
2024-06-22 magnet Чарли Пуля / Fast Charlie (2023) HDRip от AR-Team | D 1.46 GB ↑ 0 ↓ 0
2024-06-19 magnet Чарли Пуля / Fast Charlie (2023) BDRip от MegaPeer | D 1.46 GB ↑ 0 ↓ 0
2024-06-19 magnet Чарли Пуля / Fast Charlie (2023) BDRip от DoMiNo & селезень | D | Pride Production 1.46 GB ↑ 0 ↓ 0
2024-06-19 magnet Чарли Пуля / Fast Charlie (2023) BDRip 720p от DoMiNo & селезень | D | Pride Production 3.33 GB ↑ 0 ↓ 0
2024-06-18 magnet Чарли Пуля / Fast Charlie (2023) BDRip 1080p от селезень | D 7.60 GB ↑ 0 ↓ 0

Комментарии


Зарегистрируйтесь чтобы добавить комментарий
Торрент клиент
byTorrent - программа для загрузки торрент-файлов.

Скачать byTorrent.exe (1,5 МБ)

Скачать byTorrent.zip (0,6 МБ)

Поддержи torrent.by
российских рублей
(300 российских рублей это 4$)

Обратная связь rss

End game ©