↑↓torrent.by
Поиск
Логин:  Регистрация
Пароль:

Претенденты / Challengers (2024) WEB-DLRip 720p от DoMiNo & селезень | D | Red Head Sound | Кинопрокатная версия

download Скачать торрент-файл   magnet Магнитная ссылка Размер: 3.10 GB Добавлен: 2024-06-27 05:00
Пиры будут получены из сети DHT
Последний сидер был замечен 2024-07-14 00:06
Информация о фильме Название: Претенденты Оригинальное название: Challengers Год выхода: 2024 Жанр: драма, спорт Режиссер: Лука Гуаданьино / Luca Guadagnino В ролях: Зендея, Майк Фейст, Джош О’Коннор, Дарнелл Эпплинг, Брайан Ду, Шейн Т. Харрис, Нада Деспотович, Джоан Макшейн, Крис Фаулер, Мэри Джо Фернандес Описание: 2019 год. Теннисист Арт Дональдсон переживает не лучший период в карьере, поэтому, чтобы поднять его моральный дух и укрепить веру в себя, его жена и по совместительству тренер Таши предлагает принять участие в турнире серии ATP Challenger. В прошлом она сама была многообещающей спортсменкой, но не смогла восстановиться после травмы колена, и теперь все силы вкладывает в мужа. В финале Арт выходит на бывшего парня Таши и некогда своего лучшего друга Патрика Цвейга, для которого победа тоже становится делом принципа. Страна: США, Италия Студия: Frenesy Film Company, Metro-Goldwyn-Mayer (MGM), Pascal Pictures Продолжительность: 02:09:46 Перевод: Дубляж (неофициальный) - Red Head Sound Файл Формат: Matroska Качество: WEB-DLRip 720p Видео: 1280x690 at 23.976 fps, x264@L4.1, ~2970 kbps Аудио: AC3, 6 ch, ~448 kbps - | Русский | Субтитры: Нет ***Рип от: -=DoMiNo=- Это ЦЕНЗУРНАЯ версия картины, именно ее показывали в кинотеатрах. Все ЛГБТ-сцены продолжительностью около 2 минут (по понятным причинам) подвержены цензуре и отсутствуют в данном видеоряде.
[+] M/Ix264 : frame I:1551 Avg QP:16.98 size: 83686 x264 : frame P:42405 Avg QP:18.56 size: 32595 x264 : frame B:142742 Avg QP:19.82 size: 9658 General Unique ID : 211831842672444924015363903442766358531 (0x9F5D5432A4BD944676B3F317E2FD6803) Complete name : U:Challengers.2024.WEB-DLRip.720p.x264.seleZen.mkv Format : Matroska Format version : Version 4 File size : 3.10 GiB Duration : 2 h 9 min Overall bit rate : 3 420 kb/s Frame rate : 23.976 FPS Movie name : Challengers.2024.WEB-DLRip.720p.x264.seleZen Encoded date : 2024-06-26 15:40:44 UTC Writing application : mkvmerge v85.0 ('Shame For You') 64-bit Writing library : libebml v1.4.5 + libmatroska v1.7.1 Cover : Yes Attachments : cover.jpg / small_cover.jpg Video ID : 1 Format : AVC Format/Info : Advanced Video Codec Format profile : High@L4.1 Format settings : CABAC / 5 Ref Frames Format settings, CABAC : Yes Format settings, Reference : 5 frames Codec ID : V_MPEG4/ISO/AVC Duration : 2 h 9 min Bit rate : 2 970 kb/s Width : 1 280 pixels Height : 690 pixels Display aspect ratio : 1.85:1 Frame rate mode : Constant Frame rate : 23.976 (24000/1001) FPS Color space : YUV Chroma subsampling : 4:2:0 Bit depth : 8 bits Scan type : Progressive Bits/(Pixel*Frame) : 0.140 Stream size : 2.69 GiB (87%) Title : -=DoMiNo=- Writing library : x264 core 164 r3191 -DoMiNo Encoding settings : cabac=1 / ref=5 / deblock=1:-2:-1 / analyse=0x3:0x133 / me=umh / subme=10 / psy=1 / psy_rd=1.00:0.15 / mixed_ref=1 / me_range=32 / chroma_me=1 / trellis=2 / 8x8dct=1 / cqm=0 / deadzone=21,11 / fast_pskip=0 / chroma_qp_offset=-3 / threads=22 / lookahead_threads=5 / sliced_threads=0 / nr=0 / decimate=1 / interlaced=0 / bluray_compat=0 / constrained_intra=0 / bframes=12 / b_pyramid=2 / b_adapt=2 / b_bias=0 / direct=3 / weightb=1 / open_gop=0 / weightp=2 / keyint=240 / keyint_min=23 / scenecut=40 / intra_refresh=0 / rc_lookahead=60 / rc=crf / mbtree=0 / crf=20.0 / qcomp=0.60 / qpmin=0 / qpmax=69 / qpstep=4 / vbv_maxrate=50000 / vbv_bufsize=62500 / crf_max=0.0 / nal_hrd=none / filler=0 / ip_ratio=1.40 / pb_ratio=1.30 / aq=3:0.90 Language : English Default : Yes Forced : No Color range : Limited Color primaries : BT.709 Transfer characteristics : BT.709 Matrix coefficients : BT.709 Audio ID : 2 Format : AC-3 Format/Info : Audio Coding 3 Commercial name : Dolby Digital Codec ID : A_AC3 Duration : 2 h 9 min Bit rate mode : Constant Bit rate : 448 kb/s Channel(s) : 6 channels Channel layout : L R C LFE Ls Rs Sampling rate : 48.0 kHz Frame rate : 31.250 FPS (1536 SPF) Compression mode : Lossy Stream size : 416 MiB (13%) Title : Дубляж - Red Head Sound Language : Russian Service kind : Complete Main Default : Yes Forced : No Dialog Normalization : -31 dB cmixlev : -3.0 dB surmixlev : -3 dB dialnorm_Average : -31 dB dialnorm_Minimum : -31 dB dialnorm_Maximum : -31 dB Menu 00:00:00.000 : en:Chapter 01 00:05:50.000 : en:Chapter 02 00:11:40.000 : en:Chapter 03 00:17:30.000 : en:Chapter 04 00:23:20.000 : en:Chapter 05 00:29:10.000 : en:Chapter 06 00:35:00.000 : en:Chapter 07 00:40:50.000 : en:Chapter 08 00:46:40.000 : en:Chapter 09 00:52:30.000 : en:Chapter 10 00:58:20.000 : en:Chapter 11 01:04:10.000 : en:Chapter 12 01:10:00.000 : en:Chapter 13 01:15:50.000 : en:Chapter 14 01:21:40.000 : en:Chapter 15 01:27:30.000 : en:Chapter 16 01:33:20.000 : en:Chapter 17 01:39:10.000 : en:Chapter 18 01:45:00.000 : en:Chapter 19 01:50:50.000 : en:Chapter 20 01:56:40.000 : en:Chapter 21 02:02:30.000 : en:Chapter 22 02:08:20.000 : en:Chapter 23
Релиз: Присоединяйся к: Кликай на баннеры.

Всего файлов в раздаче: 1 
Challengers.2024.WEB-DLRip.720p.x264.seleZen.mkv3.10 GB

Похожие раздачи по запросу - Претенденты
Вчера magnet Претенденты / Суперники / Challengers (2024) BDRemux 1080p | P | UKR 32.12 GB ↑ 0 ↓ 0
2024-06-26 magnet Претенденты / Challengers (2024) WEB-DL 1080p от Scarabey | D | Red Head Sound | Кинопрокатная версия 9.01 GB ↑ 1 ↓ 0
2024-06-26 magnet Претенденты / Challengers (2024) WEB-DLRip от AR-Team | D | Red Head Sound | Кинопрокатная версия 1.46 GB ↑ 0 ↓ 0
2024-05-21 magnet Претенденты / Challengers (2024) WEB-DLRip-AVC | P | HDRezka Studio 2.44 GB ↑ 0 ↓ 1
2024-05-21 magnet Претенденты / Challengers (2024) WEB-DL 1080p от New-Team | P | HDRezka Studio 9.60 GB ↑ 0 ↓ 0
2024-05-21 magnet Претенденты / Challengers (2024) WEB-DL 720p | Sub 4.21 GB ↑ 0 ↓ 0

Комментарии


Зарегистрируйтесь чтобы добавить комментарий
Торрент клиент
byTorrent - программа для загрузки торрент-файлов.

Скачать byTorrent.exe (1,5 МБ)

Скачать byTorrent.zip (0,6 МБ)

Поддержи torrent.by
российских рублей
(300 российских рублей это 4$)

Обратная связь rss

End game ©