↑↓torrent.by
Поиск
Логин:  Регистрация
Пароль:

Дом Дракона / House of the Dragon [02x01-02 из 08] (2024) UHD WEB-DL 2160p | 4K | HDR | Dolby Vision Profile 8 | D, P

download Скачать торрент-файл   magnet Магнитная ссылка Размер: 21.62 GB Добавлен: 2024-06-27 11:00
Пиры будут получены из сети DHT
Последний сидер был замечен 2024-06-27 11:00
Название: Дом Дракона Оригинальное название: House of the Dragon Год выхода: 2024 Производство: США / HBO, 1:26 Pictures Жанр: Фэнтези, боевик, драма, мелодрама Перевод: Профессиональный дублированный, профессиональный многоголосый Продолжительность: 02х ~01:00:00 Режиссёры: Алан Тейлор, Клер Килнер, Гита Патель, Андрий Парекх, Лони Перистер В ролях: Эмма Д`Арси, Мэтт Смит, Ив Бест, Оливия Кук, Рис Иванс, Соноя Мидзуно, Дэвид Хорович, Грэм МакТавиш, Билл Патерсон, Стив Туссэн, Уил Джонсон, Энтони Флэнеган, Эмили Кэри Описание: После смерти короля Визериса династия Таргариенов начинает бескомпромиссную борьбу за Железный трон. Предводительницей «чёрной» ветви становится принцесса Рейнира, а на стороне «зелёной» оказывается её лучшая подруга и дочь десницы короля Алисента. В битве за престол соперницы заручаются поддержкой неожиданных союзников, плетут интриги и используют разрушительную мощь драконов. Формат: MKV Качество: WEB-DL 2160p Видео: MPEGH HEVC / ~21.4 Mbps / 3840x1920 / 0.121 Бит/(Пиксели*Кадры) / 23.976 fps Аудио 01: AC-3, 6 ch, 384 kbps | Русский, DUB | Кравец-Рекордз | Серия 1 Аудио 02: AC-3, 2 ch, 384 kbps | Русский, MVO | HDRezka Studio | Серии 1-2 Аудио 03: AC-3, 2 ch, 384 kbps | Русский, MVO | LostFilm | Серии 1-2 Аудио 04: AC-3, 6 ch, 640 kbps | Русский, MVO | NewComers | Серии 1-2 Аудио 05: AC-3, 6 ch, 384 kbps | Русский, MVO | TVShows | Серии 1-2 Аудио 06: E-AC3, 6 ch, 256 kbps | Русский, MVO | Syncmer | Серии 1-2 Аудио 07: E-AC3 JOC, 6 ch, 640 kbps | Английский | Субтитры: Русские (Forced, Full), Английские (Full, SDH)
[+] MediainfoGeneral Unique ID : 26358564319804717434606804177272438329 (0x13D4798E8DEA72077D3842D53433FE39) Complete name : /Volumes/top/House.of.the.Dragon.S02.2160p.MAX.WEB-DL.DDP5.1.DV.HDR.H.265.FLUX/House.of.the.Dragon.S02E01.A.Son.for.a.Son.2160p.MAX.WEB-DL.DDP5.1.DV.HDR.H.265-FLUX.mkv Format : Matroska Format version : Version 4 File size : 9.93 GiB Duration : 58 min 5 s Overall bit rate : 24.5 Mb/s Frame rate : 23.976 FPS Encoded date : 2024-06-26 15:54:29 UTC Writing application : mkvmerge v82.0 ('I'm The President') 64-bit Writing library : libebml v1.4.5 + libmatroska v1.7.1 Video ID : 1 Format : HEVC Format/Info : High Efficiency Video Coding Format profile : Main 10@L5.1@Main HDR format : Dolby Vision, Version 1.0, dvhe.08.06, BL+RPU, HDR10 compatible / SMPTE ST 2086, HDR10 compatible Codec ID : V_MPEGH/ISO/HEVC Duration : 58 min 3 s Bit rate : 21.4 Mb/s Width : 3 840 pixels Height : 1 920 pixels Display aspect ratio : 2.000 Frame rate mode : Constant Frame rate : 23.976 (24000/1001) FPS Color space : YUV Chroma subsampling : 4:2:0 (Type 0) Bit depth : 10 bits Bits/(Pixel*Frame) : 0.121 Stream size : 8.68 GiB (87%) Writing library : x265 3.5+1-f0c1022b6: 10bit Encoding settings : cpuid=1176575 / frame-threads=4 / wpp / no-pmode / no-pme / no-psnr / no-ssim / log-level=2 / input-csp=1 / input-res=3840x1920 / interlace=0 / total-frames=0 / level-idc=0 / high-tier=0 / uhd-bd=0 / ref=3 / no-allow-non-conformance / repeat-headers / annexb / aud / no-eob / no-eos / hrd / info / hash=0 / no-temporal-layers / no-open-gop / min-keyint=96 / keyint=96 / gop-lookahead=0 / bframes=4 / b-adapt=2 / b-pyramid / bframe-bias=0 / rc-lookahead=96 / lookahead-slices=8 / scenecut=40 / no-hist-scenecut / radl=0 / no-splice / no-intra-refresh / ctu=64 / min-cu-size=8 / no-rect / no-amp / max-tu-size=32 / tu-inter-depth=1 / tu-intra-depth=1 / limit-tu=0 / rdoq-level=0 / dynamic-rd=0.00 / no-ssim-rd / signhide / no-tskip / nr-intra=0 / nr-inter=0 / no-constrained-intra / strong-intra-smoothing / max-merge=3 / limit-refs=1 / no-limit-modes / me=1 / subme=2 / merange=57 / temporal-mvp / no-frame-dup / no-hme / weightp / weightb / no-analyze-src-pics / deblock=0:0 / no-sao / no-sao-non-deblock / rd=3 / selective-sao=0 / early-skip / rskip / no-fast-intra / no-tskip-fast / no-cu-lossless / b-intra / no-splitrd-skip / rdpenalty=0 / psy-rd=2.00 / psy-rdoq=0.00 / no-rd-refine / no-lossless / cbqpoffs=0 / crqpoffs=0 / rc=crf / crf=11.0 / qcomp=0.60 / qpstep=4 / stats-write=0 / stats-read=0 / vbv-maxrate=21900 / vbv-bufsize=40000 / vbv-init=0.9 / min-vbv-fullness=50.0 / max-vbv-fullness=80.0 / crf-max=0.0 / crf-min=0.0 / ipratio=1.40 / pbratio=1.30 / aq-mode=2 / aq-strength=1.00 / cutree / zone-count=0 / no-strict-cbr / qg-size=32 / no-rc-grain / qpmax=69 / qpmin=0 / no-const-vbv / sar=1 / overscan=0 / videoformat=5 / range=0 / colorprim=9 / transfer=16 / colormatrix=9 / chromaloc=1 / chromaloc-top=0 / chromaloc-bottom=0 / display-window=0 / master-display=G(13250,34500)B(7500,3000)R(34000,16000)WP(15635,16450)L(10000000,1) / cll=962,566 / min-luma=0 / max-luma=1023 / log2-max-poc-lsb=8 / vui-timing-info / vui-hrd-info / slices=1 / no-opt-qp-pps / no-opt-ref-list-length-pps / no-multi-pass-opt-rps / scenecut-bias=0.05 / hist-threshold=0.03 / no-opt-cu-delta-qp / no-aq-motion / hdr10 / hdr10-opt / no-dhdr10-opt / no-idr-recovery-sei / analysis-reuse-level=0 / analysis-save-reuse-level=0 / analysis-load-reuse-level=0 / scale-factor=0 / refine-intra=0 / refine-inter=0 / refine-mv=1 / refine-ctu-distortion=0 / no-limit-sao / ctu-info=0 / no-lowpass-dct / refine-analysis-type=0 / copy-pic=1 / max-ausize-factor=1.0 / no-dynamic-refine / no-single-sei / no-hevc-aq / no-svt / no-field / qp-adaptation-range=1.00 / scenecut-aware-qp=0conformance-window-offsets / right=0 / bottom=0 / decoder-max-rate=0 / no-vbv-live-multi-pass Language : English Default : Yes Forced : No Color range : Limited Color primaries : BT.2020 Transfer characteristics : PQ Matrix coefficients : BT.2020 non-constant Mastering display color primaries : Display P3 Mastering display luminance : min: 0.0001 cd/m2, max: 1000 cd/m2 Maximum Content Light Level : 962 cd/m2 Maximum Frame-Average Light Level : 566 cd/m2 Audio #1 ID : 2 Format : AC-3 Format/Info : Audio Coding 3 Commercial name : Dolby Digital Codec ID : A_AC3 Duration : 58 min 3 s Bit rate mode : Constant Bit rate : 384 kb/s Channel(s) : 6 channels Channel layout : L R C LFE Ls Rs Sampling rate : 48.0 kHz Frame rate : 31.250 FPS (1536 SPF) Compression mode : Lossy Stream size : 159 MiB (2%) Title : Dub Language : Russian Service kind : Complete Main Default : Yes Forced : No Audio #2 ID : 3 Format : AC-3 Format/Info : Audio Coding 3 Commercial name : Dolby Digital Codec ID : A_AC3 Duration : 58 min 3 s Bit rate mode : Constant Bit rate : 384 kb/s Channel(s) : 2 channels Channel layout : L R Sampling rate : 48.0 kHz Frame rate : 31.250 FPS (1536 SPF) Compression mode : Lossy Stream size : 159 MiB (2%) Title : MVO Language : Russian Service kind : Complete Main Default : No Forced : No Audio #3 ID : 4 Format : AC-3 Format/Info : Audio Coding 3 Commercial name : Dolby Digital Codec ID : A_AC3 Duration : 58 min 5 s Bit rate mode : Constant Bit rate : 384 kb/s Channel(s) : 2 channels Channel layout : L R Sampling rate : 48.0 kHz Frame rate : 31.250 FPS (1536 SPF) Compression mode : Lossy Stream size : 160 MiB (2%) Title : MVO Language : Russian Service kind : Complete Main Default : No Forced : No Audio #4 ID : 5 Format : AC-3 Format/Info : Audio Coding 3 Commercial name : Dolby Digital Codec ID : A_AC3 Duration : 58 min 3 s Bit rate mode : Constant Bit rate : 640 kb/s Channel(s) : 6 channels Channel layout : L R C LFE Ls Rs Sampling rate : 48.0 kHz Frame rate : 31.250 FPS (1536 SPF) Compression mode : Lossy Stream size : 266 MiB (3%) Title : MVO Language : Russian Service kind : Complete Main Default : No Forced : No Audio #5 ID : 6 Format : AC-3 Format/Info : Audio Coding 3 Commercial name : Dolby Digital Codec ID : A_AC3 Duration : 58 min 3 s Bit rate mode : Constant Bit rate : 384 kb/s Channel(s) : 6 channels Channel layout : L R C LFE Ls Rs Sampling rate : 48.0 kHz Frame rate : 31.250 FPS (1536 SPF) Compression mode : Lossy Stream size : 159 MiB (2%) Title : MVO Language : Russian Service kind : Complete Main Default : No Forced : No Audio #7 ID : 8 Format : E-AC-3 JOC Format/Info : Enhanced AC-3 with Joint Object Coding Commercial name : Dolby Digital Plus with Dolby Atmos Codec ID : A_EAC3 Duration : 58 min 3 s Bit rate mode : Constant Bit rate : 640 kb/s Channel(s) : 6 channels Channel layout : L R C LFE Ls Rs Sampling rate : 48.0 kHz Frame rate : 31.250 FPS (1536 SPF) Compression mode : Lossy Stream size : 266 MiB (3%) Title : Original Language : English (US) Service kind : Complete Main Default : No Forced : No Complexity index : 16 Number of dynamic objects : 15 Bed channel count : 1 channel Bed channel configuration : LFE Text #1 ID : 9 Format : UTF-8 Codec ID : S_TEXT/UTF8 Codec ID/Info : UTF-8 Plain Text Duration : 52 min 10 s Bit rate : 0 b/s Frame rate : 0.002 FPS Count of elements : 5 Stream size : 259 Bytes (0%) Title : Forced Language : Russian Default : Yes Forced : No Text #2 ID : 10 Format : UTF-8 Codec ID : S_TEXT/UTF8 Codec ID/Info : UTF-8 Plain Text Duration : 54 min 54 s Bit rate : 81 b/s Frame rate : 0.177 FPS Count of elements : 582 Stream size : 32.9 KiB (0%) Title : Full Language : Russian Default : No Forced : No Text #3 ID : 11 Format : UTF-8 Codec ID : S_TEXT/UTF8 Codec ID/Info : UTF-8 Plain Text Duration : 54 min 12 s Bit rate : 51 b/s Frame rate : 0.180 FPS Count of elements : 584 Stream size : 20.3 KiB (0%) Title : Full Language : English (US) Default : No Forced : No Text #4 ID : 12 Format : UTF-8 Codec ID : S_TEXT/UTF8 Codec ID/Info : UTF-8 Plain Text Duration : 57 min 46 s Bit rate : 56 b/s Frame rate : 0.230 FPS Count of elements : 797 Stream size : 24.0 KiB (0%) Title : SDH Language : English (US) Default : No Forced : No Menu 00:00:00.000 : en:Scene 01 00:03:58.004 : en:Intro 00:05:42.901 : en:Scene 02 01:00:42.447 : en:Credits
[+] Скриншоты

Всего файлов в раздаче: 2 
House.of.the.Dragon.S02E01.A.Son.for.a.Son.2160p.MAX.WEB-DL.DDP5.1.DV.HDR.H.265-FLUX-RGzsRutracker.mkv9.93 GB
House.of.the.Dragon.S02E02.Rhaenyra.the.Cruel.2160p.MAX.WEB-DL.DDP5.1.DV.HDR.H.265-FLUX-RGzsRutracker.mkv11.69 GB

Похожие раздачи по запросу - Дом
Сегодня magnet Дом Дракона / House of the Dragon [01-02x01-15 из 18] (2022-2024) WEB-DLRip | LostFilm 14.78 GB ↑ 0 ↓ 10
Вчера magnet Дом Дракона / House of the Dragon [02x01-05 из 08] (2024) UHD WEB-DL 2160p от Scarabey | 4K | HDR | Dolby Vision | P | LostFilm, HDRezka, Syncmer, 15K3 50.74 GB ↑ 0 ↓ 3
Вчера magnet Дом Дракона / House of the Dragon [02x01-05 из 08] (2024) WEB-DL 1080p от Scarabey | P | LostFilm, HDRezka, Syncmer 23.97 GB ↑ 0 ↓ 11
2024-07-17 magnet Дом Дракона / House of the Dragon [02x01-05 из 08] (2024) UHD WEB-DL 2160p | 4K | SDR | D, P 39.86 GB ↑ 0 ↓ 5
2024-07-17 magnet Дом Дракона / House of the Dragon [02x01-05 из 08] (2024) UHD WEB-DL 2160p | 4K | HDR | Dolby Vision Profile 8 | D, P 52.66 GB ↑ 0 ↓ 4
2024-07-16 magnet Дом Дракона / House of the Dragon [02x01-05 из 08] (2024) UHD WEB-DL 2160p | 4K | HDR | Dolby Vision Profile 8 | D, P 52.33 GB ↑ 0 ↓ 1
2024-07-16 magnet Дом Дракона / House of the Dragon [02x01-05 из 08] (2024) UHD WEB-DL 2160p | 4K | SDR | D, P 39.52 GB ↑ 0 ↓ 3

Комментарии


Зарегистрируйтесь чтобы добавить комментарий
Торрент клиент
byTorrent - программа для загрузки торрент-файлов.

Скачать byTorrent.exe (1,5 МБ)

Скачать byTorrent.zip (0,6 МБ)

Поддержи torrent.by
российских рублей
(300 российских рублей это 4$)

Обратная связь rss

End game ©