↑↓torrent.by
Поиск
Логин:  Регистрация
Пароль:

Министерство неджентльменских дел / The Ministry of Ungentlemanly Warfare (2024) BDRip 2160p | 4K | HDR10+ | D, P, P2, A

download Скачать торрент-файл   magnet Магнитная ссылка Размер: 34.72 GB Раздают: 0 Качают: 3 Добавлен: 2024-06-27 11:00
Пиры будут получены из сети DHT
Последний сидер был замечен 2024-07-07 23:31
Информация о фильме Название: Министерство неджентльменских дел Оригинальное название: The Ministry of Ungentlemanly Warfare Год выхода: 2024 Жанр: Боевик, драма, военный, история Страна: США, Великобритания, Турция Переводы: #1 Дублированный (официальный) | Мосфильм-Мастер #2 Проф. двухголосый | Кубик в Кубе (18+), ViruseProject #3 Проф. многоголосый | HDRezka Studio #4 Авторский | М. Яроцкий Продолжительность: 02:00:21 Режиссер: Гай Ричи В ролях: Генри Кавилл, Алан Ричсон, Рори Киннер, Генри Голдинг, Фредди Фокс, Эйса Гонсалес, Алекс Петтифер, Хиро Файнс Тиффин, Тиль Швайгер, Кэри Элвес и др. О фильме: 1942 год, Великобритания. Они — лучшие из лучших. Отпетые авантюристы и первоклассные спецы, привыкшие действовать в одиночку. Но когда на кону стоит судьба всего мира, им приходится объединиться в сверхсекретное боевое подразделение и отправиться на выполнение дерзкой миссии против нацистов. Теперь их дело — война, и вести они её будут совершенно не по-джентльменски. Файл Качество: BDRip 2160p Видео: HEVC (x265), HDR10+, 3840x1604, ~38200 kbps, 23,976 fps Звук#1: русский, AC3, 5.1 ch, 48 kHz, 256 kbps | Dub | Мосфильм-Мастер* Звук#2: русский, AC3, 5.1 ch, 48 kHz, 448 kbps | DVO | Кубик в Кубе (18+) Звук#3: русский, AC3, 5.1 ch, 48 kHz, 448 kbps | DVO | ViruseProject Звук#4: русский, AC3, 2.0 ch, 48 kHz, 192 kbps | MVO | HDRezka Studio* Звук#5: русский, AC3, 5.1 ch, 48 kHz, 448 kbps | AVO | М. Яроцкий Звук#6: украинский, AC3, 5.1 ch, 48 kHz, 448 kbps | MVO | DniproFilm Звук#7: английский, AC3, 5.1 ch, 48 kHz, 640 kbps | оригинал Субтитры: русские (форс., полные, SDH), украинские (форс.), английские (форс. вшитые, полные, SDH)
[+] *В звуковые дорожки № 1,4 сделаны вставки ViruseProject и Кубик в Кубе на некоторые надписи, итальянскую и немецкую речь.
[+] MIОбщее Уникальный идентификатор : 123897706010765219932133076564832079866 (0x5D35D4884B9BB6A733E685FAC6AECFFA) Полное имя : L:Torrent5MinisterstvoNedzhentlmenskihDelBDRip2160p.mkv Формат : Matroska Версия формата : Version 4 Размер файла : 34,7 Гбайт Продолжительность : 2 ч. 0 м. Общий поток : 41,3 Мбит/сек Дата кодирования : UTC 2024-06-26 14:07:48 Программа кодирования : mkvmerge v64.0.0 ('Willows') 64-bit Библиотека кодирования : libebml v1.4.2 + libmatroska v1.6.4 Видео Идентификатор : 1 Формат : HEVC Формат/Информация : High Efficiency Video Coding Профиль формата : Main 10@L5.1@High HDR format : SMPTE ST 2094 App 4, Version 1, HDR10+ Profile B compatible Идентификатор кодека : V_MPEGH/ISO/HEVC Продолжительность : 2 ч. 0 м. Битрейт : 38,2 Мбит/сек Ширина : 3 840 пикселей Высота : 1 604 пикселя Соотношение сторон : 2,40:1 Режим частоты кадров : Постоянный Частота кадров : 23,976 (24000/1001) кадра/сек Цветовое пространство : YUV Субдискретизация насыщенности : 4:2:0 (Type 2) Битовая глубина : 10 бит Бит/(Пиксели*Кадры) : 0.259 Размер потока : 32,1 Гбайт (93%) Заголовок : Sisendrovich(R) Библиотека кодирования : x265 3.5+39-931178347: 10bit Настройки программы : cpuid=1111039 / frame-threads=4 / numa-pools=24 / wpp / no-pmode / no-pme / no-psnr / no-ssim / log-level=2 / input-csp=1 / input-res=3840x1604 / interlace=0 / total-frames=173136 / level-idc=51 / high-tier=1 / uhd-bd=0 / ref=5 / no-allow-non-conformance / repeat-headers / annexb / aud / no-eob / no-eos / hrd / info / hash=0 / no-temporal-layers / open-gop / min-keyint=23 / keyint=240 / gop-lookahead=0 / bframes=16 / b-adapt=2 / b-pyramid / bframe-bias=0 / rc-lookahead=60 / lookahead-slices=0 / scenecut=40 / no-hist-scenecut / radl=0 / no-splice / no-intra-refresh / ctu=64 / min-cu-size=8 / rect / amp / max-tu-size=32 / tu-inter-depth=3 / tu-intra-depth=3 / limit-tu=0 / rdoq-level=2 / dynamic-rd=0.00 / no-ssim-rd / signhide / no-tskip / nr-intra=0 / nr-inter=0 / no-constrained-intra / no-strong-intra-smoothing / max-merge=5 / limit-refs=0 / limit-modes / me=3 / subme=7 / merange=57 / temporal-mvp / no-frame-dup / no-hme / weightp / weightb / no-analyze-src-pics / deblock=-1:-1 / no-sao / no-sao-non-deblock / rd=6 / selective-sao=0 / no-early-skip / no-rskip / no-fast-intra / no-tskip-fast / no-cu-lossless / b-intra / no-splitrd-skip / rdpenalty=0 / psy-rd=2.00 / psy-rdoq=1.00 / no-rd-refine / no-lossless / cbqpoffs=0 / crqpoffs=0 / rc=crf / crf=15.0 / qcomp=0.70 / qpstep=4 / stats-write=0 / stats-read=0 / vbv-maxrate=160000 / vbv-bufsize=160000 / vbv-init=0.9 / min-vbv-fullness=50.0 / max-vbv-fullness=80.0 / crf-max=0.0 / crf-min=0.0 / ipratio=1.40 / pbratio=1.30 / aq-mode=3 / aq-strength=0.80 / no-cutree / zone-count=0 / no-strict-cbr / qg-size=32 / no-rc-grain / qpmax=69 / qpmin=0 / no-const-vbv / sar=1 / overscan=0 / videoformat=5 / range=0 / colorprim=9 / transfer=16 / colormatrix=9 / chromaloc=1 / chromaloc-top=2 / chromaloc-bottom=2 / display-window=0 / master-display=G(13250,34500)B(7500,3000)R(34000,16000)WP(15635,16450)L(10000000,01) / cll=833,227 / min-luma=0 / max-luma=1023 / log2-max-poc-lsb=8 / vui-timing-info / vui-hrd-info / slices=1 / no-opt-qp-pps / no-opt-ref-list-length-pps / no-multi-pass-opt-rps / scenecut-bias=0.05 / hist-threshold=0.03 / no-opt-cu-delta-qp / no-aq-motion / hdr10 / hdr10-opt / dhdr10-opt / no-idr-recovery-sei / analysis-reuse-level=0 / analysis-save-reuse-level=0 / analysis-load-reuse-level=0 / scale-factor=0 / refine-intra=0 / refine-inter=0 / refine-mv=1 / refine-ctu-distortion=0 / no-limit-sao / ctu-info=0 / no-lowpass-dct / refine-analysis-type=0 / copy-pic=1 / max-ausize-factor=1.0 / no-dynamic-refine / no-single-sei / no-hevc-aq / no-svt / no-field / qp-adaptation-range=1.00 / scenecut-aware-qp=0conformance-window-offsets / right=0 / bottom=0 / decoder-max-rate=0 / no-vbv-live-multi-pass Язык : English Default : Да Forced : Нет Цветовой диапазон : Limited Основные цвета : BT.2020 Характеристики трансфера : PQ Коэффициенты матрицы : BT.2020 non-constant Mastering display color primaries : Display P3 Mastering display luminance : min: 0.0001 cd/m2, max: 1000 cd/m2 Maximum Content Light Level : 833 cd/m2 Maximum Frame-Average Light Level : 227 cd/m2 Аудио #1 Идентификатор : 2 Формат : AC-3 Формат/Информация : Audio Coding 3 Коммерческое название : Dolby Digital Идентификатор кодека : A_AC3 Продолжительность : 2 ч. 0 м. Вид битрейта : Постоянный Битрейт : 448 Кбит/сек Каналы : 6 каналов Channel layout : L R C LFE Ls Rs Частота : 48,0 КГц Частота кадров : 31,250 кадров/сек (1536 SPF) Метод сжатия : С потерями Размер потока : 386 Мбайт (1%) Заголовок : rus Dub Язык : Russian Default : Да Forced : Нет Аудио #2 Идентификатор : 3 Формат : AC-3 Формат/Информация : Audio Coding 3 Коммерческое название : Dolby Digital Идентификатор кодека : A_AC3 Продолжительность : 2 ч. 0 м. Вид битрейта : Постоянный Битрейт : 448 Кбит/сек Каналы : 6 каналов Channel layout : L R C LFE Ls Rs Частота : 48,0 КГц Частота кадров : 31,250 кадров/сек (1536 SPF) Метод сжатия : С потерями Размер потока : 386 Мбайт (1%) Заголовок : rus DVO Kubik v Kube Язык : Russian Default : Нет Forced : Нет Аудио #3 Идентификатор : 4 Формат : AC-3 Формат/Информация : Audio Coding 3 Коммерческое название : Dolby Digital Идентификатор кодека : A_AC3 Продолжительность : 2 ч. 0 м. Вид битрейта : Постоянный Битрейт : 448 Кбит/сек Каналы : 6 каналов Channel layout : L R C LFE Ls Rs Частота : 48,0 КГц Частота кадров : 31,250 кадров/сек (1536 SPF) Метод сжатия : С потерями Размер потока : 386 Мбайт (1%) Заголовок : rus DVO ViruseProject Язык : Russian Default : Нет Forced : Нет Аудио #4 Идентификатор : 5 Формат : AC-3 Формат/Информация : Audio Coding 3 Коммерческое название : Dolby Digital Идентификатор кодека : A_AC3 Продолжительность : 2 ч. 0 м. Вид битрейта : Постоянный Битрейт : 192 Кбит/сек Каналы : 2 канала Channel layout : L R Частота : 48,0 КГц Частота кадров : 31,250 кадров/сек (1536 SPF) Метод сжатия : С потерями Размер потока : 165 Мбайт (0%) Заголовок : rus MVO HDRezka Studio Язык : Russian Default : Нет Forced : Нет Аудио #5 Идентификатор : 6 Формат : AC-3 Формат/Информация : Audio Coding 3 Коммерческое название : Dolby Digital Идентификатор кодека : A_AC3 Продолжительность : 2 ч. 0 м. Вид битрейта : Постоянный Битрейт : 448 Кбит/сек Каналы : 6 каналов Channel layout : L R C LFE Ls Rs Частота : 48,0 КГц Частота кадров : 31,250 кадров/сек (1536 SPF) Метод сжатия : С потерями Размер потока : 386 Мбайт (1%) Заголовок : rus AVO Jarockij Язык : Russian Default : Нет Forced : Нет Аудио #6 Идентификатор : 7 Формат : AC-3 Формат/Информация : Audio Coding 3 Коммерческое название : Dolby Digital Идентификатор кодека : A_AC3 Продолжительность : 2 ч. 0 м. Вид битрейта : Постоянный Битрейт : 448 Кбит/сек Каналы : 6 каналов Channel layout : L R C LFE Ls Rs Частота : 48,0 КГц Частота кадров : 31,250 кадров/сек (1536 SPF) Метод сжатия : С потерями Размер потока : 386 Мбайт (1%) Заголовок : ukr MVO DniproFilm Язык : Ukrainian Default : Нет Forced : Нет Аудио #7 Идентификатор : 8 Формат : AC-3 Формат/Информация : Audio Coding 3 Коммерческое название : Dolby Digital Идентификатор кодека : A_AC3 Продолжительность : 2 ч. 0 м. Вид битрейта : Постоянный Битрейт : 640 Кбит/сек Каналы : 6 каналов Channel layout : L R C LFE Ls Rs Частота : 48,0 КГц Частота кадров : 31,250 кадров/сек (1536 SPF) Метод сжатия : С потерями Размер потока : 551 Мбайт (2%) Заголовок : eng Язык : English Default : Нет Forced : Нет Текст #1 Идентификатор : 9 Формат : UTF-8 Идентификатор кодека : S_TEXT/UTF8 Идентификатор кодека/Информация : UTF-8 Plain Text Продолжительность : 1 ч. 40 м. Битрейт : 2 бит/сек Count of elements : 42 Размер потока : 1,81 Кбайт (0%) Заголовок : rus Forced Язык : Russian Default : Да Forced : Нет Текст #2 Идентификатор : 10 Формат : UTF-8 Идентификатор кодека : S_TEXT/UTF8 Идентификатор кодека/Информация : UTF-8 Plain Text Продолжительность : 1 ч. 49 м. Битрейт : 90 бит/сек Count of elements : 1443 Размер потока : 72,9 Кбайт (0%) Заголовок : rus Full Язык : Russian Default : Нет Forced : Нет Текст #3 Идентификатор : 11 Формат : UTF-8 Идентификатор кодека : S_TEXT/UTF8 Идентификатор кодека/Информация : UTF-8 Plain Text Продолжительность : 1 ч. 50 м. Битрейт : 111 бит/сек Count of elements : 1906 Размер потока : 90,2 Кбайт (0%) Заголовок : rus SDH Язык : Russian Default : Нет Forced : Нет Текст #4 Идентификатор : 12 Формат : UTF-8 Идентификатор кодека : S_TEXT/UTF8 Идентификатор кодека/Информация : UTF-8 Plain Text Продолжительность : 1 ч. 49 м. Битрейт : 10 бит/сек Count of elements : 155 Размер потока : 8,53 Кбайт (0%) Заголовок : ukr Forced Язык : Ukrainian Default : Нет Forced : Нет Текст #5 Идентификатор : 13 Формат : UTF-8 Идентификатор кодека : S_TEXT/UTF8 Идентификатор кодека/Информация : UTF-8 Plain Text Продолжительность : 1 ч. 47 м. Битрейт : 52 бит/сек Count of elements : 1313 Размер потока : 41,1 Кбайт (0%) Заголовок : eng Full Язык : English Default : Нет Forced : Нет Текст #6 Идентификатор : 14 Формат : UTF-8 Идентификатор кодека : S_TEXT/UTF8 Идентификатор кодека/Информация : UTF-8 Plain Text Продолжительность : 1 ч. 59 м. Битрейт : 64 бит/сек Count of elements : 1872 Размер потока : 56,0 Кбайт (0%) Заголовок : eng SDH Язык : English Default : Нет Forced : Нет Меню 00:00:00.000 : en:Chapter 01 00:07:21.357 : en:Chapter 02 00:17:44.438 : en:Chapter 03 00:24:01.231 : en:Chapter 04 00:34:43.164 : en:Chapter 05 00:41:41.373 : en:Chapter 06 00:49:37.307 : en:Chapter 07 00:56:07.739 : en:Chapter 08 01:04:16.894 : en:Chapter 09 01:08:11.670 : en:Chapter 10 01:12:43.317 : en:Chapter 11 01:20:31.785 : en:Chapter 12 01:26:37.692 : en:Chapter 13 01:33:49.624 : en:Chapter 14 01:40:57.551 : en:Chapter 15 01:46:29.257 : en:Chapter 16
[+] Скриншоты
Рип и релиз от:

Всего файлов в раздаче: 1 
MinisterstvoNedzhentlmenskihDelBDRip2160p.mkv34.72 GB

Похожие раздачи по запросу - Министерство
2024-07-02 magnet Министерство неджентльменских дел / The Ministry of Ungentlemanly Warfare (2024) BDRip-HEVC 1080p от RIPS CLUB | D, P, P2, L2, A 6.47 GB ↑ 0 ↓ 9
2024-06-26 magnet Министерство неджентльменских дел / The Ministry of Ungentlemanly Warfare (2024) BDRip 1080p от Generalfilm | D 6.26 GB ↑ 0 ↓ 0
2024-06-23 magnet Министерство неджентльменских дел / The Ministry of Ungentlemanly Warfare (2024) BDRemux 1080p | D, P, P2, A 35.97 GB ↑ 0 ↓ 1
2024-06-22 magnet Министерство неджентльменских дел / The Ministry of Ungentlemanly Warfare (2024) BDRip от AR-Team | D 1.47 GB ↑ 0 ↓ 1
2024-06-20 magnet Министерство неджентльменских дел / The Ministry of Ungentlemanly Warfare (2024) UHD BDRemux 2160p | 4K | HDR10 | D, P, P2, A 72.43 GB ↑ 0 ↓ 1
2024-06-20 magnet Министерство неджентльменских дел / The Ministry of Ungentlemanly Warfare (2024) BDRip от DoMiNo & селезень | D | Мосфильм-Мастер 1.46 GB ↑ 0 ↓ 0
2024-06-19 magnet Министерство неджентльменских дел / The Ministry of Ungentlemanly Warfare (2024) BDRip от MegaPeer | D 1.46 GB ↑ 0 ↓ 0

Комментарии


Зарегистрируйтесь чтобы добавить комментарий
Торрент клиент
byTorrent - программа для загрузки торрент-файлов.

Скачать byTorrent.exe (1,5 МБ)

Скачать byTorrent.zip (0,6 МБ)

Поддержи torrent.by
российских рублей
(300 российских рублей это 4$)

Обратная связь rss

End game ©