↑↓torrent.by
Поиск
Логин:  Регистрация
Пароль:

Гриммы: перемонтаж / Новые сказки братьев Гримм / Grimm re-edit (2003) WEB-DLRip от liosaa | L1 | Directors Cut

download Скачать торрент-файл   magnet Магнитная ссылка Размер: 1.47 GB Добавлен: 2024-06-27 11:00
Пиры будут получены из сети DHT
Последний сидер был замечен 2024-06-27 17:08
Информация о фильме Название: Гриммы: перемонтаж / Новые сказки братьев Гримм Оригинальное название: Grimm re-edit Год выхода: 2003 / 2019 Жанр: триллер, комедия, ужасы, роуд-муви, вестерн, фарс Режиссер: Алекс ван Вармердам / Alex van Warmerdam В ролях: Халина Рейн, Якоб Дервиг, Кармело Гомес, Эльвира Мингес, Аннет Мальэрб, Франк Ламмерс, Лаура Сепеда, Тереса Берганса, Йохан Лейзен, Улис Дюмон, Пегги Сандааль, Анри Гарсен, Ингеборг Элзевьер, Кеес Принс О фильме: Безработный отец, будучи не в силах прокормить великовозрастных детей (им обоим явно под тридцать), отводит их в тёмный зимний лес. Страх, отчаяние, голод одолевают Якоба и Мари. Но выход есть – в кармане брата лежит записка с адресом дяди, живущего в Испании. «Дети», которым нечего терять, отправляются в опасное путешествие. Они ещё не знают, что дядя умер, а значит, никто не сможет им помочь... Потрясённый в детстве историей об оставленных в лесу Ханселе и Гретель, Вармердам создал современную вариацию на тему сказки братьев Гримм. По словам режиссёра, для него история о путешествии Якоба и Мари – способ рассказать о сложных взаимоотношениях Севера и Юга, Голландии и Испании, брата и сестры, мужчины и женщины. Мрачными, холодными красками Вармердам (в прошлом – художник) рисует картину извращённых человеческих чувств. Странные, противоестественные отношения соединяют брата и сестру, запретная любовь и звериная ревность толкают их на преступления. В безрадостном мире картины, где счастье невозможно, герои перманентно пребывают на грани истерики и самоубийства. Не сойти с ума от отчаяния им помогает юмор, чернее которого трудно отыскать. Доп. информация: В 2019-м году Алекс ван Вармердам решил перевыпустить свою картину GRIMM (2003) в новой монтажной версии, заявив во всеуслышание, что отныне эта версия является окончательной, а старую надо выбросить в ведро – до этого он не раз говорил, что сборка Стефана Кампа (монтажёра «Малыша Тони») 2003-го года гнетёт его формальным несовершенством, и отказывался включать фильм в свои ретроспективы и DVD-антологии. В результате четырёхлетней работы с Йобом тер Бургом (постоянным монтажёром Вармердама с 2009г.), хронометраж ленты сократился аж на целых 10 минут, большинство сцен стали более лаконичными и спрессованными, педалирование сексуальных перверсий ушло на задний план, появилась сцена с испанской свадьбой и несколько других фрагментов, которые улетели в корзину при первом монтаже. Именно эта версия была представлена на Нидерландском кинофестивале в городе Утрехт в 2019 г., повторно выпущена в прокат и позже выложена в HD-оцифровке для онлайн-кинотеатров. ЭТО НОВАЯ ЛИТЕРАТУРНАЯ АДАПТАЦИЯ ФИЛЬМА ДЛЯ РУССКОЯЗЫЧНОЙ АУДИТОРИИ !! Работа над переводом была выполнена в полном объёме, с учётом всех смысловых искажений и упрощений, а также фактических недочётов, которыми пестрит перевод от «Селена Интернешнл». (liosaa*2024) Страна: Нидерланды Продолжительность: 01:32:42 Перевод: Одноголосый закадровый liosaa Файл Кодек: XviD Качество: WEB-DLRip Видео: 720x384 (1.85:1), 24.000 fps, ~1808 kbps avg Звук: 48 kHz, AC3 DD, 5/1 ch, ~448.00 kbps avg (рус) Субтитры: нет
[+] MIФормат : AVI Формат/Информация : Audio Video Interleave Размер файла : 1,47 Гбайт Продолжительность : 1 ч. 32 м. Общий поток : 2265 Кбит/сек Программа кодирования : VirtualDubMod 1.5.10.2 (build 2540/release) Библиотека кодирования : VirtualDubMod build 2540/release Видео Идентификатор : 0 Формат : MPEG-4 Visual Профиль формата : Advanced Simple@L5 Настройки формата : BVOP2 Параметр BVOP формата : 2 Параметр QPel формата : Нет Параметр GMC формата : Без точки перехода Параметр матрицы формата : Default (MPEG) Идентификатор кодека : XVID Идентификатор кодека/Подсказка : XviD Продолжительность : 1 ч. 32 м. Битрейт : 1808 Кбит/сек Ширина : 720 пикселей Высота : 384 пикселя Соотношение сторон : 1,85:1 Частота кадров : 24,000 кадра/сек Цветовое пространство : YUV Субдискретизация насыщенности : 4:2:0 Битовая глубина : 8 бит Тип развёртки : Прогрессивная Метод сжатия : С потерями Бит/(Пиксели*Кадры) : 0.272 Размер потока : 1,17 Гбайт (80%) Библиотека кодирования : XviD 74 Аудио Идентификатор : 1 Формат : AC-3 Формат/Информация : Audio Coding 3 Коммерческое название : Dolby Digital Идентификатор кодека : 2000 Продолжительность : 1 ч. 32 м. Вид битрейта : Постоянный Битрейт : 448 Кбит/сек Каналы : 6 каналов ChannelLayout : L R C LFE Ls Rs Частота : 48,0 КГц Частота кадров : 31,250 кадров/сек (1536 SPF) Битовая глубина : 16 бит Метод сжатия : С потерями Размер потока : 297 Мбайт (20%) Выравнивание : Разделение по промежуткам Продолжительность промежутка : 42 мс. (1,00 видеокадр) Время предзагрузки промежутка : 500 мс. ServiceKind/Strin : Complete Main
[+] Скриншоты
Релиз от: liosaa

Всего файлов в раздаче: 1 
Grimm.RE-EDIT(2019).2003.WEB-DLRip.XviD.RUS.liosaa.avi1.47 GB

Похожие раздачи по запросу - Гриммы
2024-06-24 magnet Гриммы: перемонтаж / Новые сказки братьев Гримм / Grimm re-edit (2003) WEB-DL 1080p от liosaa | L1 | Directors Cut 6.99 GB ↑ 0 ↓ 0
2024-06-23 magnet Гриммы: перемонтаж / Новые сказки братьев Гримм / Grimm re-edit (2003) WEB-DLRip-AVC от liosaa | L1 | Directors Cut 2.23 GB ↑ 0 ↓ 0

Комментарии


Зарегистрируйтесь чтобы добавить комментарий
Торрент клиент
byTorrent - программа для загрузки торрент-файлов.

Скачать byTorrent.exe (1,5 МБ)

Скачать byTorrent.zip (0,6 МБ)

Поддержи torrent.by
российских рублей
(300 российских рублей это 4$)

Обратная связь rss

End game ©