↑↓torrent.by
Поиск
Логин:  Регистрация
Пароль:

Мертвой ночью / From the Dead of Night (1989) VHSRip | A

download Скачать торрент-файл   magnet Магнитная ссылка Размер: 937.26 MB Добавлен: 2024-06-27 11:00
Пиры будут получены из сети DHT
Последний сидер был замечен 2024-06-27 23:54
Мертвой ночью Информация о фильме Год релиза: 1989 Выпущено: США Жанр: триллер Режиссер: Пол Уэндкос В ролях: Линдсей Вагнер, Брюс Бокслейтнер, Робин Томас, Роберт Проски,, Мерритт Бутрик, Питер Джейсон, Джоэнн Линвилл, Дэни Минник, Рита Зохар О фильме: После почти смертельного опыта Джоанна обнаруживает, что ее жизнь находится в постоянной опасности. Она начинает верить, что некие силы пытаются вернуть ее в мир мертвых. Ее парень Глен думает, что она сошла с ума, поэтому Джоанна обращается к своему бывшему парню Питеру. Так уж получилось, что Питер твердо верит в сверхъестественное и даже преподает курс по этому вопросу в местном колледже. Вместе они должны противостоять «ходякам», чтобы Джоанна дожила до следующего дня. Продолжительность: 01:42:06 Перевод A: Авторский (одноголосый закадровый) Сергей Кузнецов Субтитры: нет Качество видео: VHSRip Формат видео: AVI Видео: 608x432 (1.41:1), 23.976 fps, XviD build 46 ~1081 kbps avg, 0.17 bit/pixel Аудио: 48 kHz, AC3 Dolby Digital, 2/0 (L,R) ch (моно), ~192 kbps Реклама: Отсутствует
[+] MediaInfo Мертвой ночью (From the Dead of Night) VHSRip .avi Format : AVI Format/Info : Audio Video Interleave Format settings : BitmapInfoHeader / WaveFormatEx File size : 937 MiB Duration : 1 h 42 min Overall bit rate : 1 283 kb/s Frame rate : 23.976 FPS Writing application : VirtualDubMod 1.5.10.2 (build 2540/release) Writing library : VirtualDubMod build 2540/release Video ID : 0 Format : MPEG-4 Visual Format profile : Advanced Simple@L5 Format settings : BVOP1 / Custom Matrix Format settings, BVOP : 1 Format settings, QPel : No Format settings, GMC : No warppoints Format settings, Matrix : Custom Codec ID : XVID Codec ID/Hint : XviD Duration : 1 h 42 min Bit rate : 1 082 kb/s Width : 608 pixels Height : 432 pixels Display aspect ratio : 1.407 Frame rate : 23.976 (24000/1001) FPS Color space : YUV Chroma subsampling : 4:2:0 Bit depth : 8 bits Scan type : Progressive Compression mode : Lossy Bits/(Pixel*Frame) : 0.172 Stream size : 790 MiB (84%) Writing library : XviD 1.1.2 (2006-11-01) Audio ID : 1 Format : AC-3 Format/Info : Audio Coding 3 Commercial name : Dolby Digital Codec ID : 2000 Duration : 1 h 42 min Bit rate mode : Constant Bit rate : 192 kb/s Channel(s) : 2 channels Channel layout : L R Sampling rate : 48.0 kHz Frame rate : 31.250 FPS (1536 SPF) Compression mode : Lossy Stream size : 140 MiB (15%) Alignment : Split across interleaves Interleave, duration : 42 ms (1.00 video frame) Interleave, preload duratio : 500 ms Language : English Service kind : Complete Main
[+] Скриншоты

Всего файлов в раздаче: 1 
Мертвой ночью (From the Dead of Night) VHSRip [by ale_x2008].avi937.26 MB

Комментарии


Зарегистрируйтесь чтобы добавить комментарий
Торрент клиент
byTorrent - программа для загрузки торрент-файлов.

Скачать byTorrent.exe (1,5 МБ)

Скачать byTorrent.zip (0,6 МБ)

Поддержи torrent.by
российских рублей
(300 российских рублей это 4$)

Обратная связь rss

End game ©