↑↓torrent.by
Поиск
Логин:  Регистрация
Пароль:

Варшава'21 / Рашн Гейт [01х01-08 из 12] (2024) WEBRip-AVC от Generalfilm | КПК

download Скачать торрент-файл   magnet Магнитная ссылка Размер: 1.64 GB Добавлен: 2024-06-27 11:00
Пиры будут получены из сети DHT
Последний сидер был замечен 2024-06-27 11:00
Информация о фильме Оригинальное название: Варшав 21 Год выпуска: 2024 Жанр: Детектив Режиссер: Феликс Герчиков В ролях: Дмитрий Миллер, Дмитрий Куличков, Валерия Шкирандо, Константин Крюков, Сергей Юшкевич, Андрей Ильин, Юрий Батурин, Николай Козак, Анатолий Котенёв, Юрий Беляев, Сергей Гурьев О сериале: В ходе предвыборной гонки за кресло президента Польши цинично убивают знаменитого журналиста Козельского. Польские телеканалы моментально подхватывают версию о вмешательстве России во внутренние дела страны, с целью поддержки силезских сепаратистов и дестабилизации обстановки. В качестве доказательства по ТВ крутят аудиозапись разговора российского посла Конобеева и одного из кандидатов в президенты Домбровского, которая, якобы, была разослана с почты убитого журналиста. Из небольшой искры раздувается геополитический пожар, способный нанести огромный ущерб интересам страны. Скомпрометированный сотрудник дипмиссии попадает в больницу с инфарктом, а на его место прибывает кризисный дипломат Вячеслав Васильев. Ему предстоит доказать, что обвинения в адрес Москвы не имеют под собой никаких оснований. Страна: Россия Студия: Кинокомпания Киностудия «Медведь»," Okko Studios" Продолжительность: 8 х ~ 00:46:00 Перевод: Не требуется Файл Формат: MP4 Качество: WEBRip-AVC Видео: MPEG-4 AVC (x264), 640x272, ~ 500 kbps, 25.000 fps Аудио: AAC LC, 48.0 KHz, 2 ch, 128 Kbps Субтитры: Нет
[+] Скриншоты
[+] MIComplete name : D:киноVarshava'21.S01.2024.WEBRip-AVC.KPK.GFVarshava'21.s01e03.2024.WEBRip-AVC.KPK.GF.mp4 Format : MPEG-4 Codec ID : M4V (isom/iso2/avc1) File size : 209 MiB Duration : 46mn 2s Overall bit rate mode : Variable Overall bit rate : 634 Kbps Writing application : Lavf53.19.0 Video ID : 1 Format : AVC Format/Info : Advanced Video Codec Format profile : High@L4.1 Format settings, CABAC : Yes Format settings, ReFrames : 8 frames Codec ID : avc1 Codec ID/Info : Advanced Video Coding Duration : 46mn 2s Bit rate : 500 Kbps Width : 640 pixels Height : 272 pixels Display aspect ratio : 2.35:1 Frame rate mode : Constant Frame rate : 25.000 fps Color space : YUV Chroma subsampling : 4:2:0 Bit depth : 8 bits Scan type : Progressive Bits/(Pixel*Frame) : 0.115 Stream size : 165 MiB (79%) Writing library : x264 core 146 r2538 121396c Encoding settings : cabac=1 / ref=8 / deblock=1:-1:-1 / analyse=0x3:0x133 / me=umh / subme=10 / psy=1 / psy_rd=1.00:0.00 / mixed_ref=1 / me_range=24 / chroma_me=1 / trellis=2 / 8x8dct=1 / cqm=0 / deadzone=21,11 / fast_pskip=1 / chroma_qp_offset=-2 / threads=3 / lookahead_threads=1 / sliced_threads=0 / nr=0 / decimate=1 / interlaced=0 / bluray_compat=0 / constrained_intra=0 / bframes=8 / b_pyramid=2 / b_adapt=2 / b_bias=0 / direct=3 / weightb=1 / open_gop=0 / weightp=2 / keyint=250 / keyint_min=126 / scenecut=40 / intra_refresh=0 / rc_lookahead=40 / rc=2pass / mbtree=1 / bitrate=500 / ratetol=1.0 / qcomp=0.60 / qpmin=0 / qpmax=69 / qpstep=4 / cplxblur=20.0 / qblur=0.5 / ip_ratio=1.40 / aq=1:1.00 Menus : 3 Audio ID : 2 Format : AAC Format/Info : Advanced Audio Codec Format profile : LC Codec ID : 40 Duration : 46mn 2s Bit rate mode : Variable Bit rate : 128 Kbps Channel(s) : 2 channels Channel positions : Front: L R Sampling rate : 48.0 KHz Frame rate : 46.875 fps (1024 spf) Compression mode : Lossy Stream size : 42.1 MiB (20%) Default : Yes Alternate group : 1 Menus : 3
Релиз от:

Всего файлов в раздаче: 8 
Varshava'21.s01e01.2024.WEBRip-AVC.KPK.GF.mp4208.83 MB
Varshava'21.s01e02.2024.WEBRip-AVC.KPK.GF.mp4201.21 MB
Varshava'21.s01e03.2024.WEBRip-AVC.KPK.GF.mp4208.70 MB
Varshava'21.s01e04.2024.WEBRip-AVC.KPK.GF.mp4208.69 MB
Varshava'21.s01e05.2024.WEBRip-AVC.KPK.GF.mp4216.91 MB
Varshava'21.s01e06.2024.WEBRip-AVC.KPK.GF.mp4202.05 MB
Varshava'21.s01e07.2024.WEBRip-AVC.KPK.GF.mp4217.49 MB
Varshava'21.s01e08.2024.WEBRip-AVC.KPK.GF.mp4212.30 MB

Похожие раздачи по запросу - Варшава'21
Сегодня magnet Urban Rivers - Rockin' The Blues Train (2024) MP3 100.12 MB ↑ 1 ↓ 0
Сегодня magnet Dickey Betts and Great Southern - Atlanta's Burning Down [Remaster, 24 Bit, Hi-Res] (1978/2024) FLAC 1.32 GB ↑ 0 ↓ 0
Сегодня magnet Punch Club 2: Fast Forward - Complete Edition [ v1.101 + DLC's] (2023) PC | RePack от FitGirl 811.46 MB ↑ 0 ↓ 0
Вчера magnet No Man's Sky [v 5.00.1_worlds1_126314 + DLC] (2016) PC | Лицензия 18.53 GB ↑ 0 ↓ 0
Вчера magnet Призрак Цусимы: Режиссёрская версия / Ghost of Tsushima: Director's Cut [v 1053.6.0718.1126 + DLC] (2024) PC | Repack от dixen18 38.41 GB ↑ 0 ↓ 0
Вчера magnet Nikolo Kotzev - Nikolo Kotzev's Nostradamus: The Rock Opera (2001/2024) FLAC 696.37 MB ↑ 0 ↓ 0
2024-07-22 magnet Мёртвые не причиняют боли / The Dead Don't Hurt (2023) WEB-DL 1080p от New-Team | P | TVShows 6.99 GB ↑ 0 ↓ 5

Комментарии


Зарегистрируйтесь чтобы добавить комментарий
Торрент клиент
byTorrent - программа для загрузки торрент-файлов.

Скачать byTorrent.exe (1,5 МБ)

Скачать byTorrent.zip (0,6 МБ)

Поддержи torrent.by
российских рублей
(300 российских рублей это 4$)

Обратная связь rss

End game ©