↑↓torrent.by
Поиск
Логин:  Регистрация
Пароль:

Крепкий Харт 2 / Die Hart 2: Die Harter (2024) WEB-DLRip | P2 | ViruseProject

download Скачать торрент-файл   magnet Магнитная ссылка Размер: 1.46 GB Добавлен: temaxa 2024-06-27 13:29
Пиры будут получены из сети DHT
Последний сидер был замечен 2024-07-13 09:02
Крепкий Харт 2 / Die Hart 2: Die Harter (2024) WEB-DLRip
Производство: США / Hartbeat Productions Жанр: боевик, комедия Режиссер: Эрик Аппель Актеры: Кевин Харт, Натали Эммануэль, Бен Шварц, Пола Пелл, Джон Сина, Грег Крик, Мелисса Понцио, Alon McKlveen, Forrest Conoly, Brandon Morgan и др. Описание: Исполнив свою мечту превратиться из комика на подпевках в звезду крутых боевиков, голливудский актёр Кевин Харт пытается взять новую высоту: он хочет стать первопроходцем в создании самого реалистичного, построенного на импровизациях и настоящих драках экшена. Не без труда он находит продюсера, готового поддержать проект, однако, когда начинаются «съёмки», даже Кевину кажется, что драки слишком уж реалистичные. Да тут ещё и пули свистят вполне боевые. Релиз от: AR-Team Продолжительность: 01:32:42 Качество видео: WEB-DLRip Перевод: Профессиональный двухголосый (ViruseProject | 18+) Язык озвучки: Русский, английский Субтитры: Английские Видео: Xvid, 704x352, ~1860 Kbps Аудио 1: AС3, 2 ch, 192 Kbps - русский Аудио 2: AС3, 2 ch, 192 Kbps - английский
[+] MediaInfo:
General
Complete name                  : E:\Download\Фильмы\Rips\Die.Hart.2.Die.Harter.2024.WEB-DLRip.AR-Team\Die.Hart.2.Die.Harter.2024.WEB-DLRip.AR-Team.avi
Format                         : AVI
Format/Info                    : Audio Video Interleave
Format settings                : BitmapInfoHeader / WaveFormatEx
File size                      : 1.46 GiB
Duration                       : 1 h 32 min
Overall bit rate               : 2 259 kb/s
Frame rate                     : 23.976 FPS
Writing application            : VirtualDubModRus 1.5.10.2 (build 2542/release)
Writing library                : VirtualDubMod build 2542/release

Video
ID                             : 0
Format                         : MPEG-4 Visual
Format profile                 : Advanced Simple@L5
Format settings                : BVOP1 / Custom Matrix
Format settings, BVOP          : 1
Format settings, QPel          : No
Format settings, GMC           : No warppoints
Format settings, Matrix        : Custom
Codec ID                       : XVID
Codec ID/Hint                  : XviD
Duration                       : 1 h 32 min
Bit rate                       : 1 861 kb/s
Width                          : 704 pixels
Height                         : 352 pixels
Display aspect ratio           : 2.000
Frame rate                     : 23.976 (24000/1001) FPS
Color space                    : YUV
Chroma subsampling             : 4:2:0
Bit depth                      : 8 bits
Scan type                      : Progressive
Compression mode               : Lossy
Bits/(Pixel*Frame)             : 0.313
Stream size                    : 1.21 GiB (82%)
Writing library                : XviD 73

Audio #1
ID                             : 1
Format                         : AC-3
Format/Info                    : Audio Coding 3
Commercial name                : Dolby Digital
Codec ID                       : 2000
Duration                       : 1 h 32 min
Bit rate mode                  : Constant
Bit rate                       : 192 kb/s
Channel(s)                     : 2 channels
Channel layout                 : L R
Sampling rate                  : 48.0 kHz
Frame rate                     : 31.250 FPS (1536 SPF)
Compression mode               : Lossy
Stream size                    : 127 MiB (8%)
Alignment                      : Split across interleaves
Interleave, duration           : 42  ms (1.00 video frame)
Interleave, preload duration   : 500  ms
Title                          : Russian
Service kind                   : Complete Main
Dialog Normalization           : -31 dB
dialnorm_Average               : -31 dB
dialnorm_Minimum               : -31 dB
dialnorm_Maximum               : -31 dB

Audio #2
ID                             : 2
Format                         : AC-3
Format/Info                    : Audio Coding 3
Commercial name                : Dolby Digital
Codec ID                       : 2000
Duration                       : 1 h 32 min
Bit rate mode                  : Constant
Bit rate                       : 192 kb/s
Channel(s)                     : 2 channels
Channel layout                 : L R
Sampling rate                  : 48.0 kHz
Frame rate                     : 31.250 FPS (1536 SPF)
Compression mode               : Lossy
Stream size                    : 127 MiB (8%)
Alignment                      : Split across interleaves
Interleave, duration           : 42  ms (1.00 video frame)
Interleave, preload duration   : 500  ms
Title                          : English
Service kind                   : Complete Main
Dialog Normalization           : -31 dB
dialnorm_Average               : -31 dB
dialnorm_Minimum               : -31 dB
dialnorm_Maximum               : -31 dB
Скриншоты:

Всего файлов в раздаче: 2 
Die.Hart.2.Die.Harter.2024.WEB-DLRip.AR-Team.avi1.46 GB
Die.Hart.2.Die.Harter.2024.WEB-DLRip.AR-Team_track4_[eng].srt150.63 kB

Похожие раздачи по запросу - Крепкий
2024-06-24 magnet Крепкий Харт 2 / Die Hart 2: Die Harter (2024) WEB-DL 720p от селезень | P2 | ViruseProject 2.54 GB ↑ 0 ↓ 0
2024-06-24 magnet Крепкий Харт 2 / Die Hart 2: Die Harter (2024) WEB-DLRip от New-Team | P2 | ViruseProject 1.46 GB ↑ 0 ↓ 0
2024-06-24 magnet Крепкий Харт 2 / Die Hart 2: Die Harter (2024) WEB-DL 1080p | ViruseProject 5.59 GB ↑ 0 ↓ 0

Комментарии


Зарегистрируйтесь чтобы добавить комментарий
Торрент клиент
byTorrent - программа для загрузки торрент-файлов.

Скачать byTorrent.exe (1,5 МБ)

Скачать byTorrent.zip (0,6 МБ)

Поддержи torrent.by
российских рублей
(300 российских рублей это 4$)

Обратная связь rss

End game ©