↑↓torrent.by
Поиск
Логин:  Регистрация
Пароль:

Разбой / Break (2024) WEB-DLRip-AVC | L

download Скачать торрент-файл   magnet Магнитная ссылка Размер: 1.63 GB Раздают: 5 Качают: 0 Добавлен: il68k 2024-06-27 14:52
Пиры будут получены из сети DHT
Последний сидер был замечен сегодня в 23:03
Информация о фильме Название: Разбой Оригинальное название: Break Год выхода: 2024 Жанр: драма Режиссер: Уилл Верник В ролях: Джефф Кобер, Патриция Белчер, Даррен Уайсс, Юрайа Шелтон, Виктор Разук, Калеб Эмери, Венди Браун, Стив Ричард Харрис, Ивэн Шафран О фильме: История 20-летнего Илая, который совмещает две работы, изо всех сил стараясь заботиться о своей сестре и матери. Однажды череда неожиданных событий знакомит его с миром бильярда, где Илай узнает, что его отец когда-то был легендой бильярда Детройта. Илаю предстоит столкнуться с суровой реальностью и опасностями игры, а также разобраться в самом себе. Страна: США Студия: Showdown Productions Продолжительность: 01:46:31 Перевод: Любительский (многоголосый закадровый) RGB Файл Формат: MKV Качество: WEB-DLRip-AVC Видео: AVC/H.264, 720x300, 23.976 fps, ~1800 Kbps Аудио: AC3, 6 ch, 48 kHz, 384 Kbps - русский Субтитры: отсутствуют Семпл
[+] Скриншоты
[+] MediaInfo General Unique ID : 40922839969105431050565147470976264125 (0x1EC973C950DE2792F5B8F916DF2827BD) Complete name : E:\RGB\Break.2024.WEB.MVO-RGB.mkv Format : Matroska Format version : Version 4 File size : 1.63 GiB Duration : 1 h 46 min Overall bit rate : 2 185 kb/s Frame rate : 23.976 FPS Movie name : RGB Encoded date : 2024-06-25 22:52:18 UTC Writing application : mkvmerge v82.0 ('I'm The President') 64-bit Writing library : libebml v1.4.5 + libmatroska v1.7.1 Video ID : 1 Format : AVC Format/Info : Advanced Video Codec Format profile : High@L4.1 Format settings : CABAC / 10 Ref Frames Format settings, CABAC : Yes Format settings, Reference : 10 frames Codec ID : V_MPEG4/ISO/AVC Duration : 1 h 46 min Bit rate : 1 800 kb/s Width : 720 pixels Height : 300 pixels Display aspect ratio : 2.40:1 Frame rate mode : Constant Frame rate : 23.976 (24000/1001) FPS Color space : YUV Chroma subsampling : 4:2:0 Bit depth : 8 bits Scan type : Progressive Bits/(Pixel*Frame) : 0.347 Stream size : 1.34 GiB (82%) Title : RGB Language : English Default : Yes Forced : No Audio ID : 2 Format : AC-3 Format/Info : Audio Coding 3 Commercial name : Dolby Digital Codec ID : A_AC3 Duration : 1 h 46 min Bit rate mode : Constant Bit rate : 384 kb/s Channel(s) : 6 channels Channel layout : L R C LFE Ls Rs Sampling rate : 48.0 kHz Frame rate : 31.250 FPS (1536 SPF) Compression mode : Lossy Stream size : 293 MiB (18%) Title : MVO Language : Russian Service kind : Complete Main Default : Yes Forced : No Dialog Normalization : -27 dB compr : -0.28 dB cmixlev : -3.0 dB surmixlev : -3 dB mixlevel : 285 dB roomtyp : 3 ltrtcmixlev : -3.0 dB ltrtsurmixlev : -3.0 dB lorocmixlev : -3.0 dB lorosurmixlev : -3.0 dB dialnorm_Average : -27 dB dialnorm_Minimum : -27 dB dialnorm_Maximum : -27 dB
Релиз от: RGB

Всего файлов в раздаче: 1 
Break.2024.WEB.MVO-RGB.mkv1.63 GB

Похожие раздачи по запросу - Разбой
2024-06-28 magnet Разбой / Break (2024) WEB-DLRip-AVC | L 2.05 GB ↑ 6 ↓ 0
2024-06-27 magnet Разбой / Break (2024) WEB-DLRip от AR-Team | L | RGB 1.46 GB ↑ 0 ↓ 0
2024-06-27 magnet Разбой / Break (2024) WEB-DL 1080p | L 8.08 GB ↑ 17 ↓ 0

Комментарии


Зарегистрируйтесь чтобы добавить комментарий
Торрент клиент
byTorrent - программа для загрузки торрент-файлов.

Скачать byTorrent.exe (1,5 МБ)

Скачать byTorrent.zip (0,6 МБ)

Поддержи torrent.by
российских рублей
(300 российских рублей это 4$)

Обратная связь rss

End game ©