↑↓torrent.by
Поиск
Логин:  Регистрация
Пароль:

Перерождение Дяди / Isekai Ojisan [S01] (2022-2023) BDRip-HEVC 1080p | L

download Скачать торрент-файл   magnet Магнитная ссылка Размер: 19.64 GB Добавлен: 2024-06-27 17:00
Пиры будут получены из сети DHT
Последний сидер был замечен 2024-06-27 17:00
Информация о фильме Название: Перерождение Дяди Оригинальное название: Isekai Ojisan (Uncle from Another World) Год выхода: 2022-2023 Жанр: Комедия, повседневность, фэнтези, сэйнэн Режиссер: Сигэки Каваи Роли озвучивали: Такэхито Коясу, Дзюн Фукуяма, Аки Тоёсаки, Кэнъити Судзумура, Харука Томацу, Микако Комацу, Аой Ябусаки, Нобухико Окамото, Хисако Канэмото Описание: Кто же не мечтает хоть разок побывать в ином мире, наполненном магией и дивными существами?! Хотя обычный семнадцатилетний паренёк Сибасаки всерьёз об этом не задумывался, именно ему судьба решила предоставить такой шанс. Условия «перемещения», правда, оказались не совсем приятными, но с многотонным грузовиком не поспоришь. На долгие годы тело Сибасаки погрузилось в кому, а его сознание забросило в другой мир, где его приняли за орка и неустанно преследовали. Прошло столько лет, что родные уже и не чаяли, что Сибасаки очнётся, но тот вдруг пришёл в себя и заговорил на странном языке, утверждая, что владеет магией. Разумеется, его приняли за сумасшедшего, и только племянник не отвернулся от дяди. В очередной раз навестив того в больнице, Такафуми собственными глазами узрел, как дядя управляет огнём и перемещает предметы по воздуху. В таких обстоятельствах было сложно не поверить в историю о другом мире. Теперь Сибасаки предстоит восполнить годы, проведённые в коме, и с помощью племянника познакомиться с «чудесами» современного мира, такими, как интернет, смартфон и игровые консоли, и, конечно, посмотреть кучу вышедшего за это время аниме! Страна: Япония Студия: Atelier Pontdarc Продолжительность: 13 x ~ 00:24:00 Перевод: Любительский многоголосый AniLibria (Gomer, Hoopoe, NeoNoir) Любительский многоголосый AniDUB Любительский многоголосый Dream Cast (Airis, Berserk, Indominus Rex, Ket,Lelik_time, Orru) Любительский многоголосый Jisedai (HurumBurum, Заюшка, Menegera) Любительский многоголосый SHIZA Project (DroEd, Mamoru, Absentia, LucyNyuElf)Файл Формат: MKV Качество: BDRip 1080p | Видео: HEVC, ~ 7744 Кбит/с, 1920x1080, 10 бит Аудио #1: AAC LC, 2 ch, 48 kHz, 192 kbps | Русский | AniLibria Аудио #2: AAC LC, 2 ch, 48 kHz, 192 kbps | Русский | AniDUB Аудио #3: AAC LC, 2 ch, 48 kHz, 192 kbps | Русский | Dream Cast Аудио #4: AAC LC, 2 ch, 48 kHz, 192 kbps | Русский | Jisedai Аудио #5: AAC LC, 2 ch, 48 kHz, ~ 240 kbps | Русский | SHIZA Project Аудио #6: FLAC, 2 ch, 48 kHz, 24 bit, ~ 1311 kbps | Японский | Оригинал Субтитры #1: Русские, ASS, Надписи | AniLibria Субтитры #2: Русские, ASS, Полные | Netflix Субтитры #3: Русские, ASS, Полные | AniLibria Автор релиза: EvraGo Благодарность qazxdrf, shamananime за субтитры Реклама отсутствует. Чистый опенинг и эндинг
[+] MediaInfoGeneral Unique ID : 214129832574241209641236740009884816332 (0xA117E7D8F30E1A47A672ED28845293CC) Complete name : G:РаздачиГотовые Isekai Ojisan Isekai Ojisan 01 .mkv Format : Matroska Format version : Version 4 File size : 1.68 GiB Duration : 23 min 42 s Overall bit rate mode : Variable Overall bit rate : 10.1 Mb/s Frame rate : 23.976 FPS Encoded date : 2024-06-25 14:38:02 UTC Writing application : mkvmerge v84.0 ('Sleeper') 64-bit Writing library : libebml v1.4.5 + libmatroska v1.7.1 Attachments : KOZUKAGOTHICPR6NM.TTF / tahomabd.ttf / v_MightyZeo2.0_v1.07.ttf / v_RedSt0.3.ttf / v_Reggae_v1_0 (1).ttf / verdana.ttf / verdanab.ttf / verdanaz.ttf / 18VAG Rounded M Normal.otf / 16646.otf / 3676.ttf / 9511(1).ttf / 17720.ttf / algeriantygra.ttf / ARIALUNI.ttf / AuriolC.ttf / BIP.ttf / calligrapher.ttf / comic.ttf / DFPSNGyosho-W5-CP-Spec.ttf / europedeminormal.ttf / HGPKakuPopTai-CP.ttf Video ID : 1 Format : HEVC Format/Info : High Efficiency Video Coding Format profile : Main 10@L4@High Codec ID : V_MPEGH/ISO/HEVC Duration : 23 min 42 s Bit rate : 7 744 kb/s Width : 1 920 pixels Height : 1 080 pixels Display aspect ratio : 16:9 Frame rate mode : Constant Frame rate : 23.976 (24000/1001) FPS Color space : YUV Chroma subsampling : 4:2:0 Bit depth : 10 bits Bits/(Pixel*Frame) : 0.156 Stream size : 1.28 GiB (76%) Writing library : x265 3.5+98-g3449bc85e+20-gc1a540a56: Kyouko 10bit+8bit+12bit Encoding settings : rc=crf / crf=15.0000 / qcomp=0.65 / qpstep=4 / stats-write=0 / stats-read=0 / vbv-maxrate=30000 / vbv-bufsize=38000 / vbv-init=0.9 / min-vbv-fullness=50.0 / max-vbv-fullness=80.0 / crf-max=0.0 / crf-min=0.0 / qscale-mode=0 / no-lossless / no-cu-lossless / aq-mode=5 / limit-aq1 / aq-strength=0.60 / aq-bias-strength=1.00 / limit-aq1-strength=0.90 / cbqpoffs=-5 / crqpoffs=-5 / ipratio=1.40 / pbratio=1.20 / psy-rd=1.80 / psy-rdoq=0.80 / psy-bscale=300 / psy-pscale=256 / psy-iscale=96 / deblock=-1:-1 / ref=4 / limit-refs=1 / limit-modes / bframes=8 / b-adapt=2 / bframe-bias=0 / b-pyramid / b-intra / weightp / weightb / min-keyint=1 / max-keyint=360 / rc-lookahead=120 / gop-lookahead=0 / scenecut=40 / hist-scenecut=0 / radl=0 / max-cu-size=32 / min-cu-size=8 / me=3 / subme=7 / merange=32 / rdoq-level=1 / rd=5 / rdpenalty=1 / dynamic-rd=0.00 / rd-refine / refine-tolerance=1.500 / ----- / cutree / cutree-strength=1.75 / cutree-minqpoffs=-69.00 / cutree-maxqpoffs=69.00 / no-sao / no-rect / no-amp / no-open-gop / wpp / no-pmode / no-pme / no-psnr / no-ssim / nr-intra=0 / nr-inter=0 / no-constrained-intra / no-strong-intra-smoothing / max-tu-size=32 / tu-inter-depth=3 / tu-intra-depth=3 / limit-tu=0 / qg-size=16 / qpmax=69 / qpmin=0 / ----- / cpuid=1111039 / frame-threads=4 / numa-pools=+ / log-level=2 / input-csp=1 / input-res=1920x1080 / interlace=0 / level-idc=0 / high-tier=1 / uhd-bd=0 / no-allow-non-conformance / no-repeat-headers / no-aud / no-hrd / info / hash=0 / no-temporal-layers / lookahead-slices=0 / no-splice / no-intra-refresh / no-ssim-rd / signhide / no-tskip / max-merge=4 / temporal-mvp / no-frame-dup / no-hme / analyze-src-pics / no-sao-non-deblock / selective-sao=0 / no-early-skip / rskip / no-fast-intra / no-tskip-fast / no-splitrd-skip / zone-count=0 / no-strict-cbr / no-rc-grain / no-const-vbv / sar=0 / overscan=0 / videoformat=5 / range=0 / colorprim=2 / transfer=2 / colormatrix=1 / chromaloc=0 / display-window=0 / cll=0,0 / min-luma=0 / max-luma=1023 / log2-max-poc-lsb=8 / vui-timing-info / vui-hrd-info / slices=1 / no-opt-qp-pps / no-opt-ref-list-length-pps / no-multi-pass-opt-rps / scenecut-bias=0.05 / hist-threshold=0.03 / no-opt-cu-delta-qp / no-aq-motion / no-hdr10 / no-hdr10-opt / no-dhdr10-opt / no-idr-recovery-sei / analysis-reuse-level=0 / analysis-save-reuse-level=0 / analysis-load-reuse-level=0 / scale-factor=0 / refine-intra=0 / refine-inter=0 / refine-mv=1 / refine-ctu-distortion=0 / no-limit-sao / ctu-info=0 / no-lowpass-dct / refine-analysis-type=0 / copy-pic=1 / max-ausize-factor=1.0 / no-dynamic-refine / no-single-sei / no-hevc-aq / no-svt / no-field / qp-adaptation-range=1.00 / scenecut-aware-qp=0conformance-window-offsets / right=0 / bottom=0 / decoder-max-rate=0 / no-vbv-live-multi-pass Language : Japanese Default : Yes Forced : No Color range : Limited Matrix coefficients : BT.709 Audio #1 ID : 2 Format : AAC LC Format/Info : Advanced Audio Codec Low Complexity Codec ID : A_AAC-2 Duration : 23 min 42 s Bit rate : 192 kb/s Channel(s) : 2 channels Channel layout : L R Sampling rate : 48.0 kHz Frame rate : 46.875 FPS (1024 SPF) Compression mode : Lossy Stream size : 32.5 MiB (2%) Title : AniLibria Language : Russian Default : Yes Forced : No Audio #2 ID : 3 Format : AAC LC Format/Info : Advanced Audio Codec Low Complexity Codec ID : A_AAC-2 Duration : 23 min 42 s Bit rate : 192 kb/s Channel(s) : 2 channels Channel layout : L R Sampling rate : 48.0 kHz Frame rate : 46.875 FPS (1024 SPF) Compression mode : Lossy Stream size : 32.5 MiB (2%) Title : AniDUB Language : Russian Default : No Forced : No Audio #3 ID : 4 Format : AAC LC Format/Info : Advanced Audio Codec Low Complexity Codec ID : A_AAC-2 Duration : 23 min 42 s Bit rate : 192 kb/s Channel(s) : 2 channels Channel layout : L R Sampling rate : 48.0 kHz Frame rate : 46.875 FPS (1024 SPF) Compression mode : Lossy Stream size : 32.5 MiB (2%) Title : Dream Cast Language : Russian Default : No Forced : No Audio #4 ID : 5 Format : AAC LC Format/Info : Advanced Audio Codec Low Complexity Codec ID : A_AAC-2 Duration : 23 min 42 s Bit rate : 192 kb/s Channel(s) : 2 channels Channel layout : L R Sampling rate : 48.0 kHz Frame rate : 46.875 FPS (1024 SPF) Compression mode : Lossy Stream size : 32.5 MiB (2%) Title : Jisedai Language : Russian Default : No Forced : No Audio #5 ID : 6 Format : AAC LC Format/Info : Advanced Audio Codec Low Complexity Codec ID : A_AAC-2 Duration : 23 min 42 s Bit rate : 253 kb/s Channel(s) : 2 channels Channel layout : L R Sampling rate : 48.0 kHz Frame rate : 46.875 FPS (1024 SPF) Compression mode : Lossy Stream size : 42.9 MiB (2%) Title : SHIZA Project Language : Russian Default : No Forced : No Audio #6 ID : 7 Format : FLAC Format/Info : Free Lossless Audio Codec Codec ID : A_FLAC Duration : 23 min 42 s Bit rate mode : Variable Bit rate : 1 311 kb/s Channel(s) : 2 channels Channel layout : L R Sampling rate : 48.0 kHz Frame rate : 11.719 FPS (4096 SPF) Bit depth : 24 bits Compression mode : Lossless Stream size : 222 MiB (13%) Writing library : libFLAC 1.3.2 (2017-01-01) Language : Japanese Default : No Forced : No MD5 of the unencoded conten : 23C37B5B40126E03F1863C8104A838E8 Text #1 ID : 8 Format : ASS Codec ID : S_TEXT/ASS Codec ID/Info : Advanced Sub Station Alpha Duration : 22 min 31 s Bit rate : 1 362 b/s Frame rate : 0.988 FPS Count of elements : 1335 Compression mode : Lossless Stream size : 225 KiB (0%) Title : AniLibria Language : Russian Default : Yes Forced : No Text #2 ID : 9 Format : ASS Codec ID : S_TEXT/ASS Codec ID/Info : Advanced Sub Station Alpha Duration : 23 min 25 s Bit rate : 145 b/s Frame rate : 0.245 FPS Count of elements : 344 Compression mode : Lossless Stream size : 25.0 KiB (0%) Title : Netflix Language : Russian Default : No Forced : No Text #3 ID : 10 Format : ASS Codec ID : S_TEXT/ASS Codec ID/Info : Advanced Sub Station Alpha Duration : 22 min 57 s Bit rate : 1 484 b/s Frame rate : 1.202 FPS Count of elements : 1656 Compression mode : Lossless Stream size : 250 KiB (0%) Title : AniLibria Language : Russian Default : No Forced : No Menu 00:00:00.000 : en:Chapter 01 00:05:39.005 : en:Chapter 02 00:07:08.970 : en:Chapter 03 00:11:22.015 : en:Chapter 04 00:22:05.074 : en:Chapter 05
[+] Список серий01. I`m Finally Back from the Fantasy World of Granbahamal After 17 Long Years! 02. "Guardian Heroes" Shoulda Been Number One! 03. I`m Your Un-... Aunt, Dear 04. You Helped Me Through Tough Times 05. That Reminds Me, I Almost Got Assassinated Once 06. So They Threw Me into the Basement of a Freak Show... 07. As You Can See, SEGA Games Are Very Helpful in Life! 08. I Survived by Transforming into the Strongest Creature I Know 09. The Ice Spirit Is Demanding Compensation for Cooler Magic 10. Civility Only Comes After You're Seen as a Person 11. N-no, I Wasn't Looking at Anything Dirty... 12. Names Are Important, That's What (He/She) Said 13. Thanks to all of you, Thank you.
[+] Скриншоты

Всего файлов в раздаче: 13 
[VCB-Studio] Isekai Ojisan 01 [BDRip 1080p x265 FLAC].mkv1.68 GB
[VCB-Studio] Isekai Ojisan 02 [BDRip 1080p x265 FLAC].mkv1.58 GB
[VCB-Studio] Isekai Ojisan 03 [BDRip 1080p x265 FLAC].mkv1.59 GB
[VCB-Studio] Isekai Ojisan 04 [BDRip 1080p x265 FLAC].mkv1.48 GB
[VCB-Studio] Isekai Ojisan 05 [BDRip 1080p x265 FLAC].mkv1.52 GB
[VCB-Studio] Isekai Ojisan 06 [BDRip 1080p x265 FLAC].mkv1.44 GB
[VCB-Studio] Isekai Ojisan 07 [BDRip 1080p x265 FLAC].mkv1.46 GB
[VCB-Studio] Isekai Ojisan 08 [BDRip 1080p x265 FLAC].mkv1.54 GB
[VCB-Studio] Isekai Ojisan 09 [BDRip 1080p x265 FLAC].mkv1.52 GB
[VCB-Studio] Isekai Ojisan 10 [BDRip 1080p x265 FLAC].mkv1.38 GB
Показать все файлы

Похожие раздачи по запросу - Перерождение
2024-06-27 magnet Перерождение в аристократа со способностью анализа / Tensei Kizoku, Kantei Skill de Nariagaru [S01] (2024) WEBRip | КПК | AniLibria 1.09 GB ↑ 0 ↓ 0
2024-06-27 magnet Перерождение в аристократа со способностью анализа / Tensei Kizoku, Kantei Skill de Nariagaru [S01] (2024) WEBRip 1080p | AniLibria 16.60 GB ↑ 0 ↓ 0
2024-06-23 magnet Перерождение: Монстр / Re:Monster [S01] (2024) WEBRip 1080p | AniLibria 16.60 GB ↑ 0 ↓ 0
2024-06-20 magnet Перерождение: Монстр / Re:Monster [S01] (2024) WEBRip 1080p by VLDeshka | L | DreamCast 6.69 GB ↑ 0 ↓ 0
2024-04-24 magnet Даниил Азаров - ПНП 2. Перерождение (2024) MP3 170.89 MB ↑ 0 ↓ 0

Комментарии


Зарегистрируйтесь чтобы добавить комментарий
Торрент клиент
byTorrent - программа для загрузки торрент-файлов.

Скачать byTorrent.exe (1,5 МБ)

Скачать byTorrent.zip (0,6 МБ)

Поддержи torrent.by
российских рублей
(300 российских рублей это 4$)

Обратная связь rss

End game ©