↑↓torrent.by
Поиск
Логин:  Регистрация
Пароль:

Приставы [01x01-12 из 16] (2017-2018) WEBRip 1080p от ExKinoRay

download Скачать торрент-файл   magnet Магнитная ссылка Размер: 25.78 GB Добавлен: 2024-06-27 17:00
Пиры будут получены из сети DHT
Последний сидер был замечен 2024-06-27 17:00
Информация о фильме Название: Приставы Год выхода: 2017-2018 Жанр: Драмеди Режиссер: Владимир Нахабцев (младший) В ролях: Андрей Чадов, Анна Попова, Наталия Антонова, Кирилл Мелехов, Александр Никитин, Анастасия Заворотнюк, Алексей Гришин, Владислав Котлярский, Владимир Юматов, Анатолий Гущин, Валерия Бурдужа, Олег Масленников-Войтов, Юлия Майборода, Михаил Шамигулов, Дмитрий Янышевский О фильме: Егор Грачёв – начальник отдела судебных приставов. Каждый день он и его коллеги занимаются возмещением ущерба и взысканием долгов. Егор прекрасно понимает, что закон и справедливость не всегда идут рука об руку. И нередко действует в обход инструкций: помогает фигурантам выйти из сложных ситуаций. У Грачёва постоянно возникают проблемы с отделом по противодействию коррупции. Фигуранты, пытаясь подставить сотрудников, частенько идут на различные ухищрения. Но у Егора, ко всему прочему, есть личные неприязненные отношения с начальником соседнего отдела – они влюблены в одну девушку. Страна: Россия Студия: ВайТ Медиа Продолжительность: 12 х ~ 00:51:00 Язык: Русский Реклама: Отсутствует Файл Формат: MKV Качество: WEB-Rip 1080p Видео: MPEG-4 AVC, ~ 6000 Кбит/с, 1920x1080, 25 кадр/с Звук: AC3, 2 ch, 192 Кбит/с (с цензурой) RUS Субтитры: Русские
[+] МИ General Unique ID : 217769850148443999826396641578571642102 (0xA3D4F291E31AF3D79E24CA0A1FF1B4F6) Complete name : G:Pristavy.S01.2017-2018.WEB-DL.1080p.ExKinoRayPristavy.S01.E01.2017-2018.WEB-DL.1080p.ExKinoRay.mkv Format : Matroska Format version : Version 4 File size : 2.20 GiB Duration : 51 min 1 s Overall bit rate : 6 183 kb/s Encoded date : UTC 2024-06-24 21:11:15 Writing application : mkvmerge v56.1.0 ('My Friend') 64-bit Writing library : libebml v1.4.2 + libmatroska v1.6.4 Video ID : 1 Format : AVC Format/Info : Advanced Video Codec Format profile : High@L4.1 Format settings : 2 Ref Frames Format settings, CABAC : No Format settings, Reference frames : 2 frames Codec ID : V_MPEG4/ISO/AVC Duration : 51 min 1 s Bit rate mode : Constant Bit rate : 6 000 kb/s Width : 1 920 pixels Height : 1 080 pixels Display aspect ratio : 16:9 Frame rate mode : Constant Frame rate : 25.000 FPS Standard : PAL Color space : YUV Chroma subsampling : 4:2:0 Bit depth : 8 bits Scan type : Progressive Bits/(Pixel*Frame) : 0.116 Stream size : 2.13 GiB (97%) Language : Russian Default : Yes Forced : No Color range : Limited Color primaries : BT.709 Transfer characteristics : BT.709 Matrix coefficients : BT.709 Audio ID : 2 Format : AC-3 Format/Info : Audio Coding 3 Commercial name : Dolby Digital Codec ID : A_AC3 Duration : 51 min 1 s Bit rate mode : Constant Bit rate : 192 kb/s Channel(s) : 2 channels Channel layout : L R Sampling rate : 48.0 kHz Frame rate : 31.250 FPS (1536 SPF) Compression mode : Lossy Stream size : 70.1 MiB (3%) Language : Russian Service kind : Complete Main Default : Yes Forced : No Text ID : 3 Format : UTF-8 Codec ID : S_TEXT/UTF8 Codec ID/Info : UTF-8 Plain Text Duration : 50 min 27 s Bit rate : 136 b/s Frame rate : 0.281 FPS Count of elements : 852 Stream size : 50.5 KiB (0%) Language : Russian Default : No Forced : No
[+] Скриншоты
Релиз от:

Всего файлов в раздаче: 12 
Pristavy.S01.E01.2017-2018.WEB-DL.1080p.ExKinoRay.mkv2.20 GB
Pristavy.S01.E02.2017-2018.WEB-DL.1080p.ExKinoRay.mkv2.12 GB
Pristavy.S01.E03.2017-2018.WEB-DL.1080p.ExKinoRay.mkv2.20 GB
Pristavy.S01.E04.2017-2018.WEB-DL.1080p.ExKinoRay.mkv2.16 GB
Pristavy.S01.E05.2017-2018.WEB-DL.1080p.ExKinoRay.mkv2.08 GB
Pristavy.S01.E06.2017-2018.WEB-DL.1080p.ExKinoRay.mkv2.08 GB
Pristavy.S01.E07.2017-2018.WEB-DL.1080p.ExKinoRay.mkv2.08 GB
Pristavy.S01.E08.2017-2018.WEB-DL.1080p.ExKinoRay.mkv2.22 GB
Pristavy.S01.E09.2017-2018.WEB-DL.1080p.ExKinoRay.mkv2.16 GB
Pristavy.S01.E10.2017-2018.WEB-DL.1080p.ExKinoRay.mkv2.19 GB
Показать все файлы

Похожие раздачи по запросу - Приставы
2024-07-05 magnet Приставы [S01] (2017-2018) WEBRip от Generalfilm | КПК 2.96 GB ↑ 0 ↓ 0
2024-06-29 magnet Приставы [S01] (2018) WEBRip от Files-x 10.03 GB ↑ 1 ↓ 0
2024-06-28 magnet Приставы [S01] (2018) WEBRip-AVC от Files-x 10.00 GB ↑ 0 ↓ 0
2024-06-28 magnet Приставы / Серии: 1-16 из 16 [2018, драма, детектив, WEBRip-AVC] от Aleksan55 10.02 GB ↑ 0 ↓ 0
2024-06-28 magnet Приставы [S01] (2017-2018) WEBRip 1080p от ExKinoRay 34.49 GB ↑ 0 ↓ 0
2024-06-27 magnet Приставы [01х01-12 из 16] (2018) WEBRip-AVC от Files-x 7.47 GB ↑ 0 ↓ 0
2024-06-27 magnet Приставы [01-12 из 16] (2018) WEBRip от Files-x 7.49 GB ↑ 0 ↓ 0

Комментарии


Зарегистрируйтесь чтобы добавить комментарий
Торрент клиент
byTorrent - программа для загрузки торрент-файлов.

Скачать byTorrent.exe (1,5 МБ)

Скачать byTorrent.zip (0,6 МБ)

Поддержи torrent.by
российских рублей
(300 российских рублей это 4$)

Обратная связь rss

End game ©