↑↓torrent.by
Поиск
Логин:  Регистрация
Пароль:

Калимба [S01 + Фильм о фильме] (2024) WEBRip-HEVC 2160p | 4K | SDR

download Скачать торрент-файл   magnet Магнитная ссылка Размер: 36.60 GB Добавлен: 2024-06-27 17:00
Пиры будут получены из сети DHT
Последний сидер был замечен 2024-06-27 17:00
Информация о сериале Название: Калимба Год выхода: 2024 Жанр: Драма, детектив Режиссер: Нурбек Эген В ролях: Фёдор Бондарчук, Алёна Михайлова, Сергей Гармаш, Пётр Скворцов, Елизавета Шакира, Сергей Горошко, Константин Плотников (II), Юлия Волкова, Сергей Городничий, София Сучкова, Михаил Хмуров, Камилла Келлер, Тимофей Ольков, Людмила Юлова, Елена Радевич, Ева Уильямс, Никита Брусов, Степан Пивкин О сериале: Амбициозный профессор психиатрии Виктор Мещерский проводит опасный психологический эксперимент, в рамках которого под ложным предлогом запирает в подвале жертв и их обидчиков, скрывая свои истинные цели. Последующее расследование расскажет о настоящих мотивах профессора, и свяжет воедино запутанные истории всех участников жестокого эксперимента. Страна: Россия Студия: Okko, Норм Продакшн Продолжительность: 9x ~ 00:50:00 Язык: Русский Файл Формат: MKV Качество: WEBRip-HEVC 2160p | 4K | SDR Видео: MPEG-H HEVC, ~ 11.8 Мбит/с, 3840x2160, 8 бит Аудио: E-AC3, 6 ch, 384 Кбит/с Субтитры: Нет
[+] MediaInfo:General Unique ID : 71714986969266170451594889577133532416 (0x35F3CDD89DA5FD1267C471D2D30C6500) Complete name : F:TorrentsКалимба.S01.2160p.WEB-DL.x265Калимба.S01E01.2160p.WEB-DL.x265.mkv Format : Matroska Format version : Version 4 File size : 3.94 GiB Duration : 46 min 8 s Overall bit rate : 12.2 Mb/s Frame rate : 25.000 FPS Encoded date : 2024-05-15 21:20:10 UTC Writing application : mkvmerge v82.0 ('I'm The President') 64-bit Writing library : libebml v1.4.5 + libmatroska v1.7.1 Video ID : 1 Format : HEVC Format/Info : High Efficiency Video Coding Format profile : Main@L5@Main Codec ID : V_MPEGH/ISO/HEVC Duration : 46 min 8 s Bit rate : 11.8 Mb/s Width : 3 840 pixels Height : 2 160 pixels Display aspect ratio : 16:9 Frame rate mode : Constant Frame rate : 25.000 FPS Color space : YUV Chroma subsampling : 4:2:0 Bit depth : 8 bits Bits/(Pixel*Frame) : 0.057 Stream size : 3.82 GiB (97%) Writing library : x265 3.5+1-f0c1022b6: 8bit+10bit+12bit Encoding settings : cpuid=1111039 / frame-threads=3 / wpp / no-pmode / no-pme / no-psnr / no-ssim / log-level=2 / input-csp=1 / input-res=3840x2160 / interlace=0 / total-frames=0 / level-idc=0 / high-tier=1 / uhd-bd=0 / ref=4 / no-allow-non-conformance / repeat-headers / annexb / no-aud / no-hrd / info / hash=0 / no-temporal-layers / no-open-gop / min-keyint=50 / keyint=50 / gop-lookahead=0 / bframes=3 / b-adapt=0 / b-pyramid / bframe-bias=0 / rc-lookahead=25 / lookahead-slices=4 / scenecut=0 / hist-scenecut=0 / radl=0 / no-splice / no-intra-refresh / ctu=64 / min-cu-size=8 / rect / no-amp / max-tu-size=32 / tu-inter-depth=1 / tu-intra-depth=1 / limit-tu=0 / rdoq-level=2 / dynamic-rd=0.00 / no-ssim-rd / signhide / no-tskip / nr-intra=0 / nr-inter=0 / no-constrained-intra / strong-intra-smoothing / max-merge=3 / limit-refs=3 / limit-modes / me=2 / subme=3 / merange=57 / temporal-mvp / no-frame-dup / no-hme / weightp / no-weightb / no-analyze-src-pics / deblock=0:0 / sao / no-sao-non-deblock / rd=3 / selective-sao=4 / no-early-skip / rskip / no-fast-intra / no-tskip-fast / no-cu-lossless / no-b-intra / no-splitrd-skip / rdpenalty=0 / psy-rd=2.00 / psy-rdoq=0.00 / no-rd-refine / no-lossless / cbqpoffs=0 / crqpoffs=0 / rc=abr / bitrate=12000 / qcomp=0.80 / qpstep=4 / stats-write=0 / stats-read=2 / cplxblur=20.0 / qblur=0.5 / vbv-maxrate=18000 / vbv-bufsize=24000 / vbv-init=0.8 / min-vbv-fullness=50.0 / max-vbv-fullness=80.0 / ipratio=1.40 / pbratio=1.30 / aq-mode=2 / aq-strength=1.00 / cutree / zone-count=0 / no-strict-cbr / qg-size=32 / no-rc-grain / qpmax=69 / qpmin=1 / no-const-vbv / sar=0 / overscan=0 / videoformat=5 / range=0 / colorprim=2 / transfer=2 / colormatrix=2 / chromaloc=0 / display-window=0 / cll=0,0 / min-luma=0 / max-luma=255 / log2-max-poc-lsb=8 / vui-timing-info / vui-hrd-info / slices=1 / no-opt-qp-pps / no-opt-ref-list-length-pps / no-multi-pass-opt-rps / scenecut-bias=0.05 / hist-threshold=0.03 / no-opt-cu-delta-qp / no-aq-motion / no-hdr10 / no-hdr10-opt / no-dhdr10-opt / no-idr-recovery-sei / analysis-reuse-level=0 / analysis-save-reuse-level=0 / analysis-load-reuse-level=0 / scale-factor=0 / refine-intra=0 / refine-inter=0 / refine-mv=1 / refine-ctu-distortion=0 / no-limit-sao / ctu-info=0 / no-lowpass-dct / refine-analysis-type=0 / copy-pic=1 / max-ausize-factor=1.0 / no-dynamic-refine / no-single-sei / no-hevc-aq / no-svt / no-field / qp-adaptation-range=1.00 / scenecut-aware-qp=0conformance-window-offsets / right=0 / bottom=0 / decoder-max-rate=0 / no-vbv-live-multi-pass Language : English Default : Yes Forced : No Color range : Limited Audio ID : 2 Format : E-AC-3 Format/Info : Enhanced AC-3 Commercial name : Dolby Digital Plus Codec ID : A_EAC3 Duration : 46 min 8 s Bit rate mode : Constant Bit rate : 384 kb/s Channel(s) : 6 channels Channel layout : L R C LFE Ls Rs Sampling rate : 48.0 kHz Frame rate : 31.250 FPS (1536 SPF) Bit depth : 32 bits Compression mode : Lossy Stream size : 127 MiB (3%) Language : Russian Service kind : Complete Main Default : Yes Forced : No
[+] Скриншоты

Всего файлов в раздаче: 9 
[NOOBDL]Калимба.S01E01.2160p.WEB-DL.x265.mkv3.94 GB
[NOOBDL]Калимба.S01E02.2160p.WEB-DL.x265.mkv4.23 GB
[NOOBDL]Калимба.S01E03.2160p.WEB-DL.x265.mkv4.14 GB
[NOOBDL]Калимба.S01E04.2160p.WEB-DL.x265.mkv4.07 GB
[NOOBDL]Калимба.S01E05.2160p.WEB-DL.x265.mkv3.91 GB
[NOOBDL]Калимба.S01E06.2160p.WEB-DL.x265.mkv4.05 GB
[NOOBDL]Калимба.S01E07.2160p.WEB-DL.x265.mkv3.79 GB
[NOOBDL]Калимба.S01E08.2160p.WEB-DL.x265.mkv4.13 GB
[NOOBDL]Калимба.S01E09.Видеоподкаст.2160p.WEB-DL.x265.mkv4.33 GB

Похожие раздачи по запросу - Калимба
2024-07-01 magnet Калимба [S01 + Фильм о фильме] (2024) WEBRip-AVC от Generalfilm | КПК 1.90 GB ↑ 0 ↓ 0
2024-06-29 magnet Калимба [S01 + Фильм о фильме] (2024) WEBRip 1080p от ExKinoRay 17.11 GB ↑ 0 ↓ 0
2024-06-29 magnet Калимба [S01 + Фильм о фильме] (2024) WEBRip 720p от ExKinoRay 11.76 GB ↑ 1 ↓ 0
2024-06-29 magnet Калимба [S01 + Фильм о фильме] (2024) WEBRip-AVC от ExKinoRay 5.15 GB ↑ 0 ↓ 0
2024-06-28 magnet Калимба [S01 + Фильм о фильме] (2024) WEBRip от Files-х 5.11 GB ↑ 0 ↓ 0
2024-06-27 magnet Калимба / Сезон: 1 / Серии: 1-8 из 8 [2024, драма, детектив, триллер, WEBRip-AVC] от Aleksan55 5.24 GB ↑ 0 ↓ 0
2024-06-27 magnet Калимба [S01 + Фильм о фильме] (2024) WEBRip-AVC от Files-х 5.90 GB ↑ 0 ↓ 0

Комментарии


Зарегистрируйтесь чтобы добавить комментарий
Торрент клиент
byTorrent - программа для загрузки торрент-файлов.

Скачать byTorrent.exe (1,5 МБ)

Скачать byTorrent.zip (0,6 МБ)

Поддержи torrent.by
российских рублей
(300 российских рублей это 4$)

Обратная связь rss

End game ©