↑↓torrent.by
Поиск
Логин:  Регистрация
Пароль:

Убийство на 45 оборотах / Adieu Vinyle / Goodbye vinyle (2023) WEBRip 1080p | P

download Скачать торрент-файл   magnet Магнитная ссылка Размер: 3.62 GB Добавлен: 2024-06-27 17:00
Пиры будут получены из сети DHT
Последний сидер был замечен 2024-07-10 00:55
Информация о фильме Название: Убийство на 45 оборотах Оригинальное название: Adieu Vinyle / Goodbye vinyle Год выпуска: 2023 Жанр: драма, криминал, детектив Выпущено: Франция / Mon Voisin Productions, France Télévisions Режиссер: Жозе Дайан В ролях: Изабель Аджани, Матьё Амальрик, Маттье Дессертен, Барбара Прави, Жак Боннаффе, Жером Дешам, Грегори Фетусси, Джули Дюма, Юг Кестер, Жером Миньон Описание: 1950-е. Ева находится на вершине своей музыкальной карьеры и разрывается между двумя мужчинами своей жизни: любовником и пианистом. И, конечно, у звезды есть враги среди самых преданных людей — молодая певица Флоренс завидует своей знаменитой наставнице. Она готова на всё, чтобы занять место Евы в музыкальной индустрии. Возраст: 18+ (зрителям, достигшим 18 лет. запрещено для детей) Продолжительность: 01:33:48 Перевод: Многоголосый профессиональный Субтитры: Отсутствуют Файл Формат: MKV Качество: WEBRip 1080p Видео: AVC/H.264, 1920x1080, ~5000 Kbps Аудио 1: AC3, 2 ch, 256 Kbps - Русский Аудио 2: E-AC3, 2 ch, 256 Kbps - Русский Релиз от: karfagen1975
[+] MediaInfo:General Unique ID : 168614218919979300466032682449392075820 (0x7ED9EAD5ECF2C9462221B4C55CEF842C) Complete name : Adieu.Vinyle.2023.WEB-DL.1080p.mkv Format : Matroska Format version : Version 4 File size : 3.62 GiB Duration : 1 h 33 min Overall bit rate : 5 519 kb/s Encoded date : UTC 2024-06-19 09:37:08 Writing application : mkvmerge v75.0.0 ('Goliath') 64-bit Writing library : libebml v1.4.4 + libmatroska v1.7.1 Video ID : 1 Format : AVC Format/Info : Advanced Video Codec Format profile : High@L4 Format settings : CABAC / 3 Ref Frames Format settings, CABAC : Yes Format settings, Reference frames : 3 frames Codec ID : V_MPEG4/ISO/AVC Duration : 1 h 33 min Bit rate : 5 000 kb/s Width : 1 920 pixels Height : 1 080 pixels Display aspect ratio : 16:9 Frame rate mode : Constant Frame rate : 25.000 FPS Color space : YUV Chroma subsampling : 4:2:0 Bit depth : 8 bits Scan type : Progressive Bits/(Pixel*Frame) : 0.096 Stream size : 3.28 GiB (91%) Title : Убийство на 45 оборотах (2023) WEB-DL 1080p Writing library : x264 core 164 r3095 baee400 Encoding settings : cabac=1 / ref=4 / deblock=1:-1:-1 / analyse=0x3:0x133 / me=umh / subme=9 / psy=1 / psy_rd=0.40:1.00 / mixed_ref=1 / me_range=24 / chroma_me=1 / trellis=0 / 8x8dct=1 / cqm=0 / deadzone=21,11 / fast_pskip=1 / chroma_qp_offset=-2 / threads=3 / lookahead_threads=1 / sliced_threads=0 / nr=0 / decimate=1 / interlaced=0 / bluray_compat=0 / stitchable=1 / constrained_intra=0 / bframes=8 / b_pyramid=1 / b_adapt=0 / b_bias=0 / direct=3 / weightb=1 / open_gop=0 / weightp=2 / keyint=75 / keyint_min=38 / scenecut=0 / intra_refresh=0 / rc_lookahead=40 / rc=2pass / mbtree=1 / bitrate=5000 / ratetol=1.0 / qcomp=0.80 / qpmin=1 / qpmax=69 / qpstep=4 / cplxblur=20.0 / qblur=0.5 / vbv_maxrate=7500 / vbv_bufsize=10000 / nal_hrd=none / filler=0 / ip_ratio=1.40 / aq=1:1.00 Language : French Default : Yes Forced : No Color range : Limited Color primaries : BT.709 Transfer characteristics : BT.709 Matrix coefficients : BT.709 Audio #1 ID : 2 Format : AC-3 Format/Info : Audio Coding 3 Commercial name : Dolby Digital Codec ID : A_AC3 Duration : 1 h 33 min Bit rate mode : Constant Bit rate : 256 kb/s Channel(s) : 2 channels Channel layout : L R Sampling rate : 48.0 kHz Frame rate : 31.250 FPS (1536 SPF) Compression mode : Lossy Stream size : 172 MiB (5%) Title : MVO Language : Russian Service kind : Complete Main Default : No Forced : No Audio #2 ID : 3 Format : E-AC-3 Format/Info : Enhanced AC-3 Commercial name : Dolby Digital Plus Codec ID : A_EAC3 Duration : 1 h 33 min Bit rate mode : Constant Bit rate : 256 kb/s Channel(s) : 2 channels Channel layout : L R Sampling rate : 48.0 kHz Frame rate : 31.250 FPS (1536 SPF) Compression mode : Lossy Stream size : 172 MiB (5%) Title : MVO Language : Russian Service kind : Complete Main Default : No Forced : No
[+] Скриншоты

Всего файлов в раздаче: 1 
Adieu.Vinyle.2023.WEB-DL.1080p.mkv3.62 GB

Похожие раздачи по запросу - Убийство
2024-07-13 magnet Совершая убийство / Making a Killing (2018) WEB-DL 1080p | D 3.86 GB ↑ 4 ↓ 0
2024-07-13 magnet Идеальное убийство / A Perfect Murder (1998) HDRip-AVC от DoMiNo | D 744.35 MB ↑ 0 ↓ 0
2024-06-28 magnet Убийство на 45 оборотах / Adieu Vinyle / Goodbye vinyle (2023) WEB-DLRip от MegaPeer | P 1.46 GB ↑ 0 ↓ 0
2024-06-25 magnet Андрей Волковский - Цикл «Убийство в зачарованном городе» [3 книги] (2023-2024) FB2 3.02 MB ↑ 0 ↓ 0
2024-06-24 magnet Серия - «Объявлено убийство» [8 книг] (2021-2024) FB2 21.91 MB ↑ 0 ↓ 0
2024-06-20 magnet Андрей Волковский - Цикл «Убийство в зачарованном городе» [3 книги] (2023-2024) FB2 5.93 MB ↑ 0 ↓ 0
2024-06-14 magnet Убийство в Гринвич-Виллидж / Murder in Greenwich Village (1937) BDRip-AVC | A 1.65 GB ↑ 1 ↓ 0

Комментарии


Зарегистрируйтесь чтобы добавить комментарий
Торрент клиент
byTorrent - программа для загрузки торрент-файлов.

Скачать byTorrent.exe (1,5 МБ)

Скачать byTorrent.zip (0,6 МБ)

Поддержи torrent.by
российских рублей
(300 российских рублей это 4$)

Обратная связь rss

End game ©