↑↓torrent.by
Поиск
Логин:  Регистрация
Пароль:

Разбой / Break (2024) WEB-DLRip от AR-Team | L | RGB

download Скачать торрент-файл   magnet Магнитная ссылка Размер: 1.46 GB Добавлен: temaxa 2024-06-27 22:56
Пиры будут получены из сети DHT
Последний сидер был замечен 2024-07-04 10:05
Разбой / Break (2024) WEB-DLRip
Производство: США / Showdown Productions Жанр: драма Режиссер: Уилл Верник Актеры: Джефф Кобер, Патриция Белчер, Даррен Уайсс, Юрайа Шелтон, Виктор Разук, Калеб Эмери, Венди Браун, Стив Ричард Харрис, Ивэн Шафран Описание: История 20-летнего Илая, который совмещает две работы, изо всех сил стараясь заботиться о своей сестре и матери. Однажды череда неожиданных событий знакомит его с миром бильярда, где Илай узнает, что его отец когда-то был легендой бильярда Детройта. Илаю предстоит столкнуться с суровой реальностью и опасностями игры, а также разобраться в самом себе. Релиз от: AR-Team Продолжительность: 01:46:31 Качество видео: WEB-DLRip Перевод: Многоголосый любительский (RGB) Язык озвучки: Русский Субтитры: Отсутствуют Видео: XviD, 720x304, ~1568 Kbps Аудио 1: AC3, 2 ch, 192 Kbps - Русский Аудио 2: AC3, 2 ch, 192 Kbps - Английский
[+] MediaInfo:
General
Complete name                  : E:\Download\Фильмы\Rips\Break.2024.WEB-DLRip.MVO.AR-Team.avi
Format                         : AVI
Format/Info                    : Audio Video Interleave
Format settings                : BitmapInfoHeader / WaveFormatEx
File size                      : 1.46 GiB
Duration                       : 1 h 46 min
Overall bit rate               : 1 967 kb/s
Frame rate                     : 23.976 FPS
Writing application            : VirtualDubModRus 1.5.10.2 (build 2542/release)
Writing library                : VirtualDubMod build 2542/release

Video
ID                             : 0
Format                         : MPEG-4 Visual
Format profile                 : Advanced Simple@L5
Format settings                : BVOP1 / Custom Matrix
Format settings, BVOP          : 1
Format settings, QPel          : No
Format settings, GMC           : No warppoints
Format settings, Matrix        : Custom
Codec ID                       : XVID
Codec ID/Hint                  : XviD
Duration                       : 1 h 46 min
Bit rate                       : 1 569 kb/s
Width                          : 720 pixels
Height                         : 304 pixels
Display aspect ratio           : 2.35:1
Frame rate                     : 23.976 (24000/1001) FPS
Color space                    : YUV
Chroma subsampling             : 4:2:0
Bit depth                      : 8 bits
Scan type                      : Progressive
Compression mode               : Lossy
Bits/(Pixel*Frame)             : 0.299
Stream size                    : 1.17 GiB (80%)
Writing library                : XviD 73

Audio #1
ID                             : 1
Format                         : AC-3
Format/Info                    : Audio Coding 3
Commercial name                : Dolby Digital
Codec ID                       : 2000
Duration                       : 1 h 46 min
Bit rate mode                  : Constant
Bit rate                       : 192 kb/s
Channel(s)                     : 2 channels
Channel layout                 : L R
Sampling rate                  : 48.0 kHz
Frame rate                     : 31.250 FPS (1536 SPF)
Compression mode               : Lossy
Stream size                    : 146 MiB (10%)
Alignment                      : Split across interleaves
Interleave, duration           : 42  ms (1.00 video frame)
Interleave, preload duration   : 500  ms
Title                          : Russian
Service kind                   : Complete Main
Dialog Normalization           : -31 dB
dialnorm_Average               : -31 dB
dialnorm_Minimum               : -31 dB
dialnorm_Maximum               : -31 dB

Audio #2
ID                             : 2
Format                         : AC-3
Format/Info                    : Audio Coding 3
Commercial name                : Dolby Digital
Codec ID                       : 2000
Duration                       : 1 h 46 min
Bit rate mode                  : Constant
Bit rate                       : 192 kb/s
Channel(s)                     : 2 channels
Channel layout                 : L R
Sampling rate                  : 48.0 kHz
Frame rate                     : 31.250 FPS (1536 SPF)
Compression mode               : Lossy
Stream size                    : 146 MiB (10%)
Alignment                      : Split across interleaves
Interleave, duration           : 42  ms (1.00 video frame)
Interleave, preload duration   : 500  ms
Service kind                   : Complete Main
Dialog Normalization           : -31 dB
dialnorm_Average               : -31 dB
dialnorm_Minimum               : -31 dB
dialnorm_Maximum               : -31 dB
Скриншоты:

Всего файлов в раздаче: 1 
Break.2024.WEB-DLRip.MVO.AR-Team.avi1.46 GB

Похожие раздачи по запросу - Разбой
2024-06-28 magnet Разбой / Break (2024) WEB-DLRip-AVC | L 2.05 GB ↑ 2 ↓ 0
2024-06-27 magnet Разбой / Break (2024) WEB-DLRip-AVC | L 1.63 GB ↑ 2 ↓ 0
2024-06-27 magnet Разбой / Break (2024) WEB-DL 1080p | L 8.08 GB ↑ 18 ↓ 0

Комментарии


Зарегистрируйтесь чтобы добавить комментарий
Торрент клиент
byTorrent - программа для загрузки торрент-файлов.

Скачать byTorrent.exe (1,5 МБ)

Скачать byTorrent.zip (0,6 МБ)

Поддержи torrent.by
российских рублей
(300 российских рублей это 4$)

Обратная связь rss

End game ©