↑↓torrent.by
Поиск
Логин:  Регистрация
Пароль:

Три мушкетёра: Миледи / Les Trois Mousquetaires: Milady / The Three Musketeers - Part II: Milady (2023) BDRip-HEVC 1080p от RIPS CLUB | D

download Скачать торрент-файл   magnet Магнитная ссылка Размер: 8.62 GB Добавлен: 2024-06-28 05:00
Пиры будут получены из сети DHT
Последний сидер был замечен 2024-07-17 17:27
Название: Три мушкетёра: Миледи Оригинальное название: Les trois mousquetaires: Milady Год производства: 2023 Производство: Франция, Германия, Испания, Бельгия / Chapter 2, Constantin Film, M6 Films, Pathe, Zweites Deutsches Fernsehen (ZDF) Жанр: боевик, драма, приключения, история Режиссёр: Мартен Бурбулон В ролях: Франсуа Сивиль, Венсан Кассель, Ромен Дюрис, Пио Мармай, Ева Грин, Луи Гаррель, Вики Крипс, Лина Кудри, Джейкоб Форчун-Ллойд, Эрик Руф О фильме: На глазах Д’Артаньяна похищают его возлюбленную Констанцию. Пока верные друзья, три королевских мушкетёра Атос, Портос и Арамис, сражаются на поле боя, Д’Артаньян вынужден объединить усилия с таинственной Миледи, чтобы спасти свою любимую. Но страшные тайны прошлого могут разрушить как новые союзы, так и старую дружбу. Продолжительность: 01:54:08 Перевод: дублированный Качество: BDRip-HEVC 1080p Кодек: HEVC (x265) Видео: 1920x800, 9719 Kbps, HEVC (Main10@L.4.1@High) 10 бит Звук: Аудио1: E-AC3, 6 ch, 448 Kbps - Русский, DUB (Пифагор) Аудио2: AC3, 6 ch, 640 Kbps - Французский Субтитры: русские (full, forced), английские, французские (full, forced, SDH) Навигация по главам: Есть
[+] Лог (x265 info) + Mediainfo x265 : frame I: 693, Avg QP:18.48 kb/s: 20931.36 x265 : frame P: 26428, Avg QP:19.57 kb/s: 16800.21 x265 : frame B: 137231, Avg QP:21.73 kb/s: 8298.22 x265 : Weighted P-Frames: Y:17.9% UV:15.1% x265 : Weighted B-Frames: Y:18.5% UV:15.0% x265 : encoded 164352 frames in 117937.64s (1.39 fps), 9718.62 kb/s, Avg QP:21.37 Общее Уникальный идентификатор : 13733033687614369805526382948516030017 (0xA54E2D62E0C380B76B323AAF632E641) Полное имя : .Три.мушкетёра.Миледи.Les.Trois.Mousquetaires.Milady.2023.BDRip-HEVC.1080p.mkv Формат : Matroska Версия формата : Version 4 Размер файла : 8,62 Гбайт Продолжительность : 1 ч. 54 мин. Общий битрейт : 10,8 Мбит/сек Частота кадров : 24,000 кадра/сек Название фильма : Три мушкетёра: Миледи / Три мушкетёра: Миледи Кодирование выполнил : OldGamer Тип содержимого : Movie Дата выпуска : 2023-12-13 Дата записи : 2023-12-13 Программа кодирования : mkvmerge v83.0 ('Circle Of Friends') 64-bit Библиотека кодирования : libebml v1.4.5 + libmatroska v1.7.1 / xvid4psp5 Обложка : Yes Attachments : cover.jpg ACTOR : François Civil, Vincent Cassel, Romain Duris, Pio Marmaï, Ева Грин, Лина Кудри, Louis Garrel, Vicky Krieps, Jacob Fortune-Lloyd, Eric Ruf, Marc Barbé, Patrick Mille, Julien Frison, Ralph Amoussou, Alexis Michalik, Камиль Ратерфорд, Dominique Valadié,... ARTIST : François Civil, Vincent Cassel, Romain Duris, Pio Marmaï, Ева Грин, Лина Кудри, Louis Garrel, Vicky Krieps, Jacob Fortune-Lloyd, Eric Ruf, Marc Barbé, Patrick Mille, Julien Frison, Ralph Amoussou, Alexis Michalik, Камиль Ратерфорд, Dominique Valadié,... DIRECTOR : Martin Bourboulon GENRE : приключения, боевик, драма LAW_RATING : PG-13 PRODUCER : Dimitri Rassam PRODUCTION_STUDIO : La Région Île-de-France RATING : PG-13 SYNOPSIS : На глазах Д’Артаньяна похищают его возлюбленную Констанцию. Пока верные друзья, три королевских мушкетёра Атос, Портос и Арамис, сражаются на поле боя, Д’Артаньян вынужден объединить усилия с таинственной Миледи, чтобы спасти свою любимую. Но страшные тайны прошлого могут разрушить как новые союзы, так и старую дружбу. Видео Идентификатор : 1 Формат : HEVC Формат/Информация : High Efficiency Video Coding Профиль формата : Main 10@L4.1@High Идентификатор кодека : V_MPEGH/ISO/HEVC Продолжительность : 1 ч. 54 мин. Битрейт : 9 719 Кбит/сек Ширина : 1 920 пикселей Высота : 800 пикселей Соотношение сторон дисплея : 2,40:1 Режим частоты кадров : Постоянный Частота кадров : 24,000 кадра/сек Цветовое пространство : YUV Цветовая субдискретизация : 4:2:0 Битовая глубина : 10 бит Бит/(Пиксели*Кадры) : 0.264 Размер потока : 7,75 Гбайт (90%) Заголовок : Les Trois Mousquetaires : Milady / Rip by OldGamer Библиотека кодирования : x265 3.6+12-f3c5fbaff: 10bit Параметры библиотеки кодирования : cpuid=1111039 / frame-threads=3 / numa-pools=8 / wpp / no-pmode / no-pme / no-psnr / no-ssim / log-level=2 / input-csp=1 / input-res=1920x800 / interlace=0 / total-frames=164352 / level-idc=41 / high-tier=1 / uhd-bd=0 / ref=5 / no-allow-non-conformance / no-repeat-headers / annexb / no-aud / no-eob / no-eos / no-hrd / info / hash=0 / temporal-layers=0 / open-gop / min-keyint=23 / keyint=240 / gop-lookahead=0 / bframes=16 / b-adapt=2 / b-pyramid / bframe-bias=0 / rc-lookahead=60 / lookahead-slices=0 / scenecut=40 / no-hist-scenecut / radl=0 / no-splice / no-intra-refresh / ctu=32 / min-cu-size=8 / rect / amp / max-tu-size=32 / tu-inter-depth=4 / tu-intra-depth=4 / limit-tu=1 / rdoq-level=2 / dynamic-rd=0.00 / no-ssim-rd / signhide / no-tskip / nr-intra=0 / nr-inter=0 / no-constrained-intra / no-strong-intra-smoothing / max-merge=5 / limit-refs=3 / no-limit-modes / me=3 / subme=7 / merange=57 / temporal-mvp / no-frame-dup / no-hme / weightp / weightb / no-analyze-src-pics / deblock=-2:-2 / no-sao / no-sao-non-deblock / rd=6 / selective-sao=0 / no-early-skip / no-rskip / no-fast-intra / no-tskip-fast / no-cu-lossless / b-intra / no-splitrd-skip / rdpenalty=0 / psy-rd=2.00 / psy-rdoq=1.00 / no-rd-refine / no-lossless / cbqpoffs=0 / crqpoffs=0 / rc=crf / crf=20.5 / qcomp=0.60 / qpstep=4 / stats-write=0 / stats-read=0 / vbv-maxrate=50000 / vbv-bufsize=50000 / vbv-init=0.9 / min-vbv-fullness=50.0 / max-vbv-fullness=80.0 / crf-max=0.0 / crf-min=0.0 / ipratio=1.40 / pbratio=1.30 / aq-mode=1 / aq-strength=1.00 / no-cutree / zone-count=1 / zones: / start-frame=155908 / end-frame=164352 / qp=36 / no-strict-cbr / qg-size=32 / no-rc-grain / qpmax=69 / qpmin=0 / no-const-vbv / sar=1 / overscan=0 / videoformat=5 / range=0 / colorprim=2 / transfer=2 / colormatrix=2 / chromaloc=0 / display-window=0 / cll=0,0 / min-luma=0 / max-luma=1023 / log2-max-poc-lsb=8 / vui-timing-info / vui-hrd-info / slices=1 / no-opt-qp-pps / no-opt-ref-list-length-pps / no-multi-pass-opt-rps / scenecut-bias=0.00 / no-opt-cu-delta-qp / no-aq-motion / no-hdr10 / no-hdr10-opt / no-dhdr10-opt / no-idr-recovery-sei / analysis-reuse-level=0 / analysis-save-reuse-level=0 / analysis-load-reuse-level=0 / scale-factor=0 / refine-intra=0 / refine-inter=0 / refine-mv=1 / refine-ctu-distortion=0 / no-limit-sao / ctu-info=0 / no-lowpass-dct / refine-analysis-type=0 / copy-pic=1 / max-ausize-factor=1.0 / no-dynamic-refine / no-single-sei / no-hevc-aq / no-svt / no-field / qp-adaptation-range=1.00 / scenecut-aware-qp=0conformance-window-offsets / right=0 / bottom=0 / decoder-max-rate=0 / no-vbv-live-multi-pass / no-mcstf / no-sbrc Язык : Французский По умолчанию : Да Принудительно : Нет Аудио #1 Идентификатор : 2 Формат : E-AC-3 Формат/Информация : Enhanced AC-3 Коммерческое название : Dolby Digital Plus Идентификатор кодека : A_EAC3 Продолжительность : 1 ч. 54 мин. Вид битрейта : Постоянный Битрейт : 448 Кбит/сек Канал(-ы) : 6 каналов Расположение каналов : L R C LFE Ls Rs Частота дискретизации : 48,0 КГц Частота кадров : 31,250 кадров/сек (1536 SPF) Метод сжатия : С потерями Размер потока : 366 Мбайт (4%) Заголовок : DUB (Пифагор) Язык : Русский Вид сервиса : Complete Main По умолчанию : Да Принудительно : Нет Нормализация звука речи : -31 dB dialnorm_Average : -31 dB dialnorm_Minimum : -31 dB dialnorm_Maximum : -31 dB Аудио #2 Идентификатор : 3 Формат : AC-3 Формат/Информация : Audio Coding 3 Коммерческое название : Dolby Digital Идентификатор кодека : A_AC3 Продолжительность : 1 ч. 54 мин. Вид битрейта : Постоянный Битрейт : 640 Кбит/сек Канал(-ы) : 6 каналов Расположение каналов : L R C LFE Ls Rs Частота дискретизации : 48,0 КГц Частота кадров : 31,250 кадров/сек (1536 SPF) Метод сжатия : С потерями Размер потока : 522 Мбайт (6%) Заголовок : Original Язык : Французский Вид сервиса : Complete Main По умолчанию : Нет Принудительно : Нет Нормализация звука речи : -31 dB compr : -0.28 dB cmixlev : -3.0 dB surmixlev : -3 dB dmixmod : Lo/Ro ltrtcmixlev : -3.0 dB ltrtsurmixlev : -3.0 dB lorocmixlev : -3.0 dB lorosurmixlev : -3.0 dB dialnorm_Average : -31 dB dialnorm_Minimum : -31 dB dialnorm_Maximum : -31 dB Текст #1 Идентификатор : 4 Формат : UTF-8 Идентификатор кодека : S_TEXT/UTF8 Идентификатор кодека/Информация : UTF-8 Plain Text Продолжительность : 1 ч. 39 мин. Битрейт : 2 бит/сек Частота кадров : 0,002 кадр/сек Число элементов : 13 Размер потока : 1,55 КиБ (0%) Заголовок : Форсированные Язык : Русский По умолчанию : Да Принудительно : Нет Текст #2 Идентификатор : 5 Формат : UTF-8 Идентификатор кодека : S_TEXT/UTF8 Идентификатор кодека/Информация : UTF-8 Plain Text Продолжительность : 1 ч. 46 мин. Битрейт : 69 бит/сек Частота кадров : 0,158 кадр/сек Число элементов : 1011 Размер потока : 54,2 КиБ (0%) Заголовок : Полные Язык : Русский По умолчанию : Нет Принудительно : Нет Текст #3 Идентификатор : 6 Формат : UTF-8 Идентификатор кодека : S_TEXT/UTF8 Идентификатор кодека/Информация : UTF-8 Plain Text Продолжительность : 1 ч. 46 мин. Битрейт : 43 бит/сек Частота кадров : 0,158 кадр/сек Число элементов : 1011 Размер потока : 34,0 КиБ (0%) Заголовок : Full Язык : Английский По умолчанию : Нет Принудительно : Нет Текст #4 Идентификатор : 7 Формат : UTF-8 Идентификатор кодека : S_TEXT/UTF8 Идентификатор кодека/Информация : UTF-8 Plain Text Продолжительность : 43 мин. 26 с. Битрейт : 4 бит/сек Частота кадров : 0,016 кадр/сек Число элементов : 41 Размер потока : 1,30 КиБ (0%) Заголовок : Forced Язык : Французский По умолчанию : Нет Принудительно : Нет Текст #5 Идентификатор : 8 Формат : UTF-8 Идентификатор кодека : S_TEXT/UTF8 Идентификатор кодека/Информация : UTF-8 Plain Text Продолжительность : 1 ч. 52 мин. Битрейт : 46 бит/сек Частота кадров : 0,209 кадр/сек Число элементов : 1411 Размер потока : 38,3 КиБ (0%) Заголовок : Full Язык : Французский По умолчанию : Нет Принудительно : Нет Текст #6 Идентификатор : 9 Формат : UTF-8 Идентификатор кодека : S_TEXT/UTF8 Идентификатор кодека/Информация : UTF-8 Plain Text Продолжительность : 1 ч. 52 мин. Битрейт : 46 бит/сек Частота кадров : 0,210 кадр/сек Число элементов : 1418 Размер потока : 38,5 КиБ (0%) Заголовок : SDH Язык : Французский По умолчанию : Нет Принудительно : Нет Меню 00:00:00.000 : en:Глава 01 00:05:15.583 : en:Глава 02 00:18:42.583 : en:Глава 03 00:28:23.500 : en:Глава 04 00:34:51.458 : en:Глава 05 00:42:45.375 : en:Глава 06 00:54:35.625 : en:Глава 07 01:09:05.750 : en:Глава 08 01:21:05.042 : en:Глава 09 01:29:28.708 : en:Глава 10 01:40:25.333 : en:Глава 11 01:48:22.167 : en:Глава 12
[+] Скриншоты
Релиз от: OldGamer

Всего файлов в раздаче: 1 
Три.мушкетёра.Миледи.Les.Trois.Mousquetaires.Milady.2023.BDRip-HEVC.1080p.mkv8.62 GB

Похожие раздачи по запросу - Три
2024-06-13 magnet Три секунды / The Informer (2019) BDRip-AVC от ExKinoRay | iTunes 2.09 GB ↑ 0 ↓ 0
2024-05-31 magnet Три дня лейтенанта Кравцова [01-04 из 04] (2011) WEB-DLRip-AVC от Generalfilm | КПК 821.65 MB ↑ 0 ↓ 0
2024-05-30 magnet Три дня лейтенанта Кравцова [1-4 серии из 4] (2011) WEB-DL 720p от MegaPeer 3.40 GB ↑ 1 ↓ 0
2024-05-28 magnet Миллионер на три дня / Three Day Millionaire (2022) BDRip от MegaPeer | D 1.46 GB ↑ 0 ↓ 0
2024-04-17 magnet Три мушкетёра: Миледи / Les Trois Mousquetaires: Milady / The Three Musketeers - Part II: Milady (2023) BDRip от DoMiNo & селезень | D 1.44 GB ↑ 0 ↓ 0
2024-04-16 magnet Три мушкетёра: Миледи / Les Trois Mousquetaires: Milady / The Three Musketeers - Part II: Milady (2023) BDRip 1080p от селезень | D 16.74 GB ↑ 1 ↓ 0
2024-04-04 magnet Три мушкетера: Д’Артаньян / Les trois mousquetaires: D'Artagnan (2023) WEB-DLRip-AVC от DoMiNo & селезень | D | Локализованная версия 1.95 GB ↑ 0 ↓ 0

Комментарии


Зарегистрируйтесь чтобы добавить комментарий
Торрент клиент
byTorrent - программа для загрузки торрент-файлов.

Скачать byTorrent.exe (1,5 МБ)

Скачать byTorrent.zip (0,6 МБ)

Поддержи torrent.by
российских рублей
(300 российских рублей это 4$)

Обратная связь rss

End game ©