↑↓torrent.by
Поиск
Логин:  Регистрация
Пароль:

Каждый мечтает о собаке (2024) WEB-DLRip-AVC от DoMiNo & селезень

download Скачать торрент-файл   magnet Магнитная ссылка Размер: 1.46 GB Добавлен: 2024-06-28 05:00
Пиры будут получены из сети DHT
Последний сидер был замечен 2024-07-23 18:39
Информация о фильме Название: Каждый мечтает о собаке Год выхода: 2024 Жанр: Приключения, семейный Режиссер: Ольга Беляева В ролях: Вера Островская, Борис Дейков, Макар Фомин, Вероника Васильева, Данила Харенко, Елизавета Медведева, Иван Колесников, Катерина Шпица, Дмитрий Муляр, Сергей Никоненко О фильме: Юрка — замкнутый в себе двенадцатилетний школьник, тяжело переживающий потерю отца. Обыденное течение его жизни меняется, когда в классе появляются новенькие — брат и сестра. Вместе им предстоит повзрослеть и узнать, чего стоит настоящая дружба. Страна: Россия Студия: Кинокомпания «Июнь» Продолжительность: 01:29:31 Язык: Русский Субтитры: Нет Файл Формат: Matroska Качество: WEB-DLRip-AVC Видео: 1024x456 at 24.000 fps, x264@L4.1, ~1954 kbps Аудио: AC3, 6 ch, ~384 kbps - | Русский | ***Рип от: -=DoMiNo=-
[+] M/IGeneral Unique ID : 258626855049457836509325972983603213956 (0xC291B86FD209A1BC498EB9DEFB5F3684) Complete name : S:Каждый.мечтает.о.собаке.2024.WEB-DLRip.x264.seleZen.mkv Format : Matroska Format version : Version 4 File size : 1.46 GiB Duration : 1 h 29 min Overall bit rate : 2 333 kb/s Frame rate : 24.000 FPS Movie name : Каждый.мечтает.о.собаке.2024.WEB-DLRip.x264.seleZen Encoded date : 2024-06-27 12:07:20 UTC Writing application : mkvmerge v85.0 ('Shame For You') 64-bit Writing library : libebml v1.4.5 + libmatroska v1.7.1 Cover : Yes Attachments : cover.jpg / small_cover.jpg Video ID : 1 Format : AVC Format/Info : Advanced Video Codec Format profile : High@L4.1 Format settings : CABAC / 10 Ref Frames Format settings, CABAC : Yes Format settings, Reference : 10 frames Codec ID : V_MPEG4/ISO/AVC Duration : 1 h 29 min Bit rate : 1 954 kb/s Width : 1 024 pixels Height : 456 pixels Display aspect ratio : 2.25:1 Frame rate mode : Constant Frame rate : 24.000 FPS Color space : YUV Chroma subsampling : 4:2:0 Bit depth : 8 bits Scan type : Progressive Bits/(Pixel*Frame) : 0.174 Stream size : 1.22 GiB (83%) Writing library : x264 core 164 r3191 -DoMiNo Encoding settings : cabac=1 / ref=10 / deblock=1:-2:-1 / analyse=0x3:0x133 / me=umh / subme=10 / psy=1 / psy_rd=1.05:0.15 / mixed_ref=1 / me_range=32 / chroma_me=1 / trellis=2 / 8x8dct=1 / cqm=0 / deadzone=21,11 / fast_pskip=0 / chroma_qp_offset=-3 / threads=14 / lookahead_threads=3 / sliced_threads=0 / nr=0 / decimate=0 / interlaced=0 / bluray_compat=0 / constrained_intra=0 / bframes=10 / b_pyramid=2 / b_adapt=2 / b_bias=0 / direct=3 / weightb=1 / open_gop=0 / weightp=2 / keyint=240 / keyint_min=24 / scenecut=40 / intra_refresh=0 / rc_lookahead=60 / rc=2pass / mbtree=0 / bitrate=1954 / ratetol=1.0 / qcomp=0.70 / qpmin=0 / qpmax=69 / qpstep=4 / cplxblur=20.0 / qblur=0.5 / vbv_maxrate=50000 / vbv_bufsize=62500 / nal_hrd=none / filler=0 / ip_ratio=1.20 / pb_ratio=1.35 / aq=1:0.90 Language : Russian Default : Yes Forced : No Color range : Limited Color primaries : BT.709 Transfer characteristics : BT.709 Matrix coefficients : BT.709 Audio ID : 2 Format : AC-3 Format/Info : Audio Coding 3 Commercial name : Dolby Digital Codec ID : A_AC3 Duration : 1 h 29 min Bit rate mode : Constant Bit rate : 384 kb/s Channel(s) : 6 channels Channel layout : L R C LFE Ls Rs Sampling rate : 48.0 kHz Frame rate : 31.250 FPS (1536 SPF) Compression mode : Lossy Stream size : 246 MiB (16%) Language : Russian Service kind : Complete Main Default : Yes Forced : No Dialog Normalization : -24 dB compr : -0.28 dB cmixlev : -3.0 dB surmixlev : -3 dB mixlevel : 285 dB roomtyp : 3 ltrtcmixlev : -3.0 dB ltrtsurmixlev : -3.0 dB lorocmixlev : -3.0 dB lorosurmixlev : -4.5 dB dialnorm_Average : -24 dB dialnorm_Minimum : -24 dB dialnorm_Maximum : -24 dB Menu 00:00:00.000 : en:Chapter 01 00:05:50.000 : en:Chapter 02 00:11:40.000 : en:Chapter 03 00:17:30.000 : en:Chapter 04 00:23:20.000 : en:Chapter 05 00:29:10.000 : en:Chapter 06 00:35:00.000 : en:Chapter 07 00:40:50.000 : en:Chapter 08 00:46:40.000 : en:Chapter 09 00:52:30.000 : en:Chapter 10 00:58:20.000 : en:Chapter 11 01:04:10.000 : en:Chapter 12 01:10:00.000 : en:Chapter 13 01:15:50.000 : en:Chapter 14 01:21:40.000 : en:Chapter 15 01:27:30.000 : en:Chapter 16
Релиз: Присоединяйся к: Кликай на баннеры.

Всего файлов в раздаче: 1 
Каждый.мечтает.о.собаке.2024.WEB-DLRip.x264.seleZen.mkv1.46 GB

Похожие раздачи по запросу - Каждый
2024-07-21 magnet Александр Голод, Татьяна Вязникова - Дачный календарь 2025. Сборник полезных советов на каждый день (2024) FB2 3.52 MB ↑ 0 ↓ 0
2024-07-14 magnet Серия - «Кулинария. Всегда под рукой. Энциклопедии на каждый день» [4 книги] (2022-2023) PDF 37.24 MB ↑ 1 ↓ 0
2024-06-27 magnet Каждый мечтает о собаке (2024) WEB-DL 1080p от ExKinoRay 3.56 GB ↑ 0 ↓ 1
2024-06-27 magnet Каждый мечтает о собаке (2024) WEB-DLRip от ExKinoRay 1.37 GB ↑ 1 ↓ 0
2024-06-14 magnet Домашние молитвы. На все случаи жизни и на каждый день (2020) PDF, FB2, EPUB, MOBI, TXT 6.10 MB ↑ 0 ↓ 0
2023-10-27 magnet Дикие кошки из Швеции / Каждый день / Swedish Wildcats / Every Afternoon (1972) DVDRip-AVC от ExKinoRay | A 2.06 GB ↑ 0 ↓ 0

Комментарии


Зарегистрируйтесь чтобы добавить комментарий
Торрент клиент
byTorrent - программа для загрузки торрент-файлов.

Скачать byTorrent.exe (1,5 МБ)

Скачать byTorrent.zip (0,6 МБ)

Поддержи torrent.by
российских рублей
(300 российских рублей это 4$)

Обратная связь rss

End game ©