↑↓torrent.by
Поиск
Логин:  Регистрация
Пароль:

Imagine Dragons - Loom [24Bit, Hi-Res] (2024) FLAC

download Скачать торрент-файл   magnet Магнитная ссылка Размер: 398.60 MB Добавлен: 2024-06-28 05:00
Пиры будут получены из сети DHT
Последний сидер был замечен 2024-07-11 17:22
Imagine Dragons - Loom (2024) Жанр: Pop Rock, Indie-Rock, Alternative-Rock Издание: KIDinaKORNER - Interscope Records Продолжительность: 00:31:32 Кодек: FLAC 24/48 Битрейт: Lossless|WEB-DL Тип рипа: tracks Треклист: 01. Wake Up (2:47) 02. Nice to Meet You (3:11) 03. Eyes Closed (3:20) 04. Take Me to the Beach (2:47) 05. In Your Corner (4:00) 06. Gods Don’t Pray (2:50) 07. Don’t Forget Me (2:58) 08. Kid (2:40) 09. Fire in These Hills (3:39) 10. Eyes Closed (3:20)
[+] Дополнительная информация: https://www.imaginedragonsmusic.com/ https://www.facebook.com/ImagineDragons https://music.apple.com/us/album/loom/1741841621
[+] Отчёт DR: -------------------------------------------------------------------------------- Analyzed: Imagine Dragons / LOOM -------------------------------------------------------------------------------- DR Peak RMS Duration Track -------------------------------------------------------------------------------- DR6 -0.20 dB -7.35 dB 2:47 01-Wake Up DR5 -0.20 dB -7.06 dB 3:11 02-Nice to Meet You DR5 -0.20 dB -7.84 dB 3:20 03-Eyes Closed DR6 -0.20 dB -7.67 dB 2:47 04-Take Me to the Beach DR6 -0.20 dB -7.47 dB 4:00 05-In Your Corner DR6 -0.20 dB -8.06 dB 2:50 06-Gods Don’t Pray DR5 -0.20 dB -8.10 dB 2:58 07-Don’t Forget Me DR6 -0.20 dB -7.40 dB 2:40 08-Kid DR6 -0.20 dB -8.99 dB 3:39 09-Fire in These Hills DR5 -0.20 dB -7.78 dB 3:20 10-Eyes Closed -------------------------------------------------------------------------------- Number of tracks: 10 Official DR value: DR6 Samplerate: 48000 Hz Channels: 2 Bits per sample: 24 Bitrate: 1723 kbps Codec: FLAC ================================================================================
[+] Отчёт Mi: Format : FLAC Format/Info : Free Lossless Audio Codec File size : 36.5 MiB Duration : 2 min 46 s Overall bit rate mode : Variable Overall bit rate : 1 837 kb/s Album : LOOM Album/Performer : Imagine Dragons Part : 1 Part/Total : 1 Track name : Wake Up Track name/Position : 1 Track name/Total : 10 Performer : Imagine Dragons Label : KIDinaKORNER - Interscope Records Genre : Alternative & Indie Recorded date : 2024 ISRC : USUM72404009 Copyright : © ℗ 2024 KIDinaKORNER/Interscope Records Cover : Yes Cover type : Cover (front) Cover MIME : image/jpeg UPC : 0602465623185 Audio Format : FLAC Format/Info : Free Lossless Audio Codec Duration : 2 min 46 s Bit rate mode : Variable Bit rate : 1 818 kb/s Channel(s) : 2 channels Channel layout : L R Sampling rate : 48.0 kHz Bit depth : 24 bits Compression mode : Lossless Stream size : 36.1 MiB (99%) Writing library : Mutagen 1.45.1 MD5 of the unencoded content : 00000000000000000000000000000000 General Complete name : C:Deemix MusicJune 28, 2024Imagine Dragons - 2024 - LOOM (24bit-48kHz)

Всего файлов в раздаче: 11 
01 Wake Up.flac36.50 MB
02 Nice to Meet You.flac40.68 MB
03 Eyes Closed.flac40.83 MB
04 Take Me to the Beach.flac35.95 MB
05 In Your Corner.flac49.93 MB
06 Gods Don’t Pray.flac35.45 MB
07 Don’t Forget Me.flac36.98 MB
08 Kid.flac35.58 MB
09 Fire in These Hills.flac44.90 MB
10 Eyes Closed.flac41.47 MB
Показать все файлы

Похожие раздачи по запросу - Imagine
2024-06-29 magnet Imagine Dragons - Loom [24Bit Hi-Res] (2024) FLAC 416.58 MB ↑ 0 ↓ 0
2024-06-29 magnet Imagine Dragons - Loom (2024) MP3 72.31 MB ↑ 0 ↓ 0

Комментарии


Зарегистрируйтесь чтобы добавить комментарий
Торрент клиент
byTorrent - программа для загрузки торрент-файлов.

Скачать byTorrent.exe (1,5 МБ)

Скачать byTorrent.zip (0,6 МБ)

Поддержи torrent.by
российских рублей
(300 российских рублей это 4$)

Обратная связь rss

End game ©