↑↓torrent.by
Поиск
Логин:  Регистрация
Пароль:

Фуриоса: Хроники Безумного Макса / Furiosa: A Mad Max Saga (2024) WEB-DLRip-AVC | КПК | P | HDrezka Studio

download Скачать торрент-файл   magnet Магнитная ссылка Размер: 745.53 MB Раздают: 0 Качают: 2 Добавлен: 2024-06-28 05:00
Пиры будут получены из сети DHT
Последний сидер был замечен сегодня в 02:42
Информация о фильме Название: Фуриоса: Хроники Безумного Макса Оригинальное название: Furiosa: A Mad Max Saga Год выхода: 2024 Жанр: фантастика, боевик Режиссер: Джордж Миллер В ролях: Аня Тейлор-Джой, Крис Хемсворт, Том Бёрк, Алила Браун, Джордж Шевцов, Лейчи Халм, Джон Ховард, Энгус Сэмпсон, Чарли Фрейзер, Эльза Патаки О фильме: История похищения юной воительницы Фуриосы из Зелёных Земель, в результате которого девушка попадает в руки орды байкеров под предводительством Военачальника Дементуса. Пробираясь через Пустошь, они натыкаются на Цитадель, которой управляет Бессмертный Джо, и пока два тирана борются за господство, Фуриосе предстоит пережить множество испытаний, пытаясь найти путь домой. Рейтинг MPAA: R - лицам до 17 лет обязательно присутствие взрослого Страна: Австралия, США Студия: Warner Bros., Domain Entertainment, Kennedy Miller Mitchell Продолжительность: 02:28:11 Перевод: Профессиональный (многоголосый, закадровый) | HDrezka Studio Файл Формат: MP4 Качество: WEB-DLRip-AVC (исх. WEB-DLRip 720p by DoMiNo) Видео: High@L3.2, 640x268 (2.39:1), at 23.976 fps, 630 kbps Аудио: AAC LC SBR (HE-AAC), 48.0 kHz, 2 ch, 72 kbps Субтитры: Russian (Forced, Full)
[+] MediaInfoGeneral Complete name : Furiosa.A.Mad.Max.Saga.2024.HDrS.WEB-DLRip.mp4 Format : MPEG-4 Format profile : Base Media Codec ID : isom (isom/avc1) File size : 746 MiB Duration : 2 h 28 min Overall bit rate mode : Variable Overall bit rate : 703 kb/s Encoded date : UTC 2024-06-26 13:40:23 Tagged date : UTC 2024-06-26 13:40:23 Video ID : 1 Format : AVC Format/Info : Advanced Video Codec Format profile : High@L3.2 Format settings : CABAC / 14 Ref Frames Format settings, CABAC : Yes Format settings, RefFrames : 14 frames Codec ID : avc1 Codec ID/Info : Advanced Video Coding Duration : 2 h 28 min Bit rate : 630 kb/s Maximum bit rate : 2 309 kb/s Width : 640 pixels Height : 268 pixels Display aspect ratio : 2.40:1 Frame rate mode : Constant Frame rate : 23.976 (24000/1001) FPS Color space : YUV Chroma subsampling : 4:2:0 Bit depth : 8 bits Scan type : Progressive Bits/(Pixel*Frame) : 0.153 Stream size : 666 MiB (89%) Title : Furiosa Writing library : x264 core 133 r2334 a3ac64b Encoding settings : cabac=1 / ref=14 / deblock=1:-1:-1 / analyse=0x3:0x133 / me=umh / subme=10 / psy=1 / psy_rd=1.00:0.00 / mixed_ref=1 / me_range=32 / chroma_me=1 / trellis=2 / 8x8dct=1 / cqm=0 / deadzone=21,11 / fast_pskip=0 / chroma_qp_offset=-2 / threads=6 / lookahead_threads=1 / sliced_threads=0 / nr=0 / decimate=0 / interlaced=0 / bluray_compat=0 / constrained_intra=0 / bframes=13 / b_pyramid=2 / b_adapt=2 / b_bias=0 / direct=3 / weightb=1 / open_gop=0 / weightp=2 / keyint=240 / keyint_min=23 / scenecut=40 / intra_refresh=0 / rc=2pass / mbtree=0 / bitrate=630 / ratetol=1.0 / qcomp=0.75 / qpmin=0 / qpmax=69 / qpstep=4 / cplxblur=20.0 / qblur=0.5 / ip_ratio=1.10 / pb_ratio=1.40 / aq=2:1.00 Language : English Encoded date : UTC 2024-06-26 13:40:23 Tagged date : UTC 2024-06-26 13:40:44 Color range : Limited Color primaries : BT.709 Transfer characteristics : BT.709 Matrix coefficients : BT.709 Codec configuration box : avcC Audio ID : 2 Format : AAC LC SBR Format/Info : Advanced Audio Codec Low Complexity with Spectral Band Replication Commercial name : HE-AAC Format settings : Explicit Codec ID : mp4a-40-2 Duration : 2 h 28 min Bit rate mode : Variable Bit rate : 72.0 kb/s Maximum bit rate : 106 kb/s Channel(s) : 2 channels Channel layout : L R Sampling rate : 48.0 kHz Frame rate : 23.438 FPS (2048 SPF) Compression mode : Lossy Stream size : 76.3 MiB (10%) Title : MVO - HDrezka Studio Language : Russian Encoded date : UTC 2024-06-26 13:40:39 Tagged date : UTC 2024-06-26 13:40:44 Text #1 ID : 3 Format : Timed Text Codec ID : tx3g Duration : 2 h 1 min Bit rate mode : Variable Bit rate : 0 b/s Stream size : 318 Bytes (0%) Title : Forced Language : Russian Forced : No Encoded date : UTC 2024-06-26 13:40:43 Tagged date : UTC 2024-06-26 13:40:44 Text #2 ID : 4 Format : Timed Text Codec ID : tx3g Duration : 2 h 17 min Bit rate mode : Variable Bit rate : 49 b/s Stream size : 49.9 KiB (0%) Title : Full Language : Russian Forced : No Encoded date : UTC 2024-06-26 13:40:43 Tagged date : UTC 2024-06-26 13:40:44
[+] Скриншоты

Всего файлов в раздаче: 1 
Furiosa.A.Mad.Max.Saga.2024.HDrS.WEB-DLRip.mp4745.53 MB

Похожие раздачи по запросу - Фуриоса
2024-07-15 magnet Фуриоса: Хроники Безумного Макса / Фуріоза: Шалений Макс. Сага / Furiosa: A Mad Max Saga (2024) WEB-DL-HEVC 2160p | 4K | SDR | D | UKR 26.45 GB ↑ 0 ↓ 1
2024-07-06 magnet Фуриоса: Хроники Безумного Макса / Furiosa: A Mad Max Saga (2024) UHD WEB-DL 2160p | 4K | HDR | Dolby Vision Profile 8 | D, P, A 31.04 GB ↑ 2 ↓ 6
2024-07-03 magnet Фуриоса: Хроники Безумного Макса / Furiosa: A Mad Max Saga (2024) WEB-DLRip-AVC | КПК | D, P | Red Head Sound, HDrezka Studio 805.80 MB ↑ 0 ↓ 1
2024-07-03 magnet Фуриоса: Хроники Безумного Макса / Furiosa: A Mad Max Saga [2024, фантастика, боевик, WEB-DLRip-AVC] Dub 2.18 GB ↑ 0 ↓ 2
2024-07-01 magnet Фуриоса: Хроники Безумного Макса / Furiosa: A Mad Max Saga (2024) WEB-DLRip 1080p | D, P, A | Movie Dubbing, RHS, LostFilm, HDrezka, Jaskier, TVShows, Яроцкий 22.53 GB ↑ 1 ↓ 3
2024-06-30 magnet Фуриоса: Хроники Безумного Макса / Furiosa: A Mad Max Saga (2024) WEB-DLRip от DoMiNo & селезень | D | Red Head Sound 1.47 GB ↑ 0 ↓ 2
2024-06-30 magnet Фуриоса: Хроники Безумного Макса / Furiosa: A Mad Max Saga (2024) UHD WEB-DL HEVC 2160p | 4K | Dolby Vision TV | D | Movie Dubbing, Red Head Sound 27.00 GB ↑ 0 ↓ 3

Комментарии


Зарегистрируйтесь чтобы добавить комментарий
Торрент клиент
byTorrent - программа для загрузки торрент-файлов.

Скачать byTorrent.exe (1,5 МБ)

Скачать byTorrent.zip (0,6 МБ)

Поддержи torrent.by
российских рублей
(300 российских рублей это 4$)

Обратная связь rss

End game ©