↑↓torrent.by
Поиск
Логин:  Регистрация
Пароль:

Контакт / Contact (1997) BDRemux 1080p | KOR Transfer | D, P2, A

download Скачать торрент-файл   magnet Магнитная ссылка Размер: 40.11 GB Добавлен: 2024-06-28 05:00
Пиры будут получены из сети DHT
Последний сидер был замечен 2024-06-28 20:25
Название: Контакт Оригинальное название: Contact Год выхода: 1997 Производство: США / Warner Bros. Pictures, South Side Amusement Company Жанр: Фантастика, триллер, драма, детектив Перевод: Профессиональный дублированный, профессиональный двухголосый, авторский одноголосый Продолжительность: 02:29:44 Режиссер: Роберт Земекис В ролях: Джоди Фостер, Мэттью МакКонахи, Джена Мэлоун, Дэвид Морс, Уильям Фихтнер, Джеффри Блейк, Том Скерритт, Джеймс Вудс, Джейк Бьюзи, Джон Хёрт, Анджела Бассетт, Сами Честер, Тимоти МакНил, Лаура Елена Сурилло, Генри Строзье, Майкл Чабан, Макс Мартини, Ларри Кинг, Томас Гарнер, Конрой Чино, Дэн Гиффорд, Вэнс Валенсия, Донна Дж. Келли, Леон Харрис, Клер Шипман, Бехруз Афрахан, Саеми Накамура, Мария Селеста Аррарас, Табита Сорен, Херальдо Ривера, Йен Уиткомб, Джей Лено, Натали Аллен, Роберт Д. Новак, Джеральдин А. Ферраро, Энн Драйэн, Роб Лоу, Кэтлин Кеннеди, Мишель Албала, Нед Неттервиль, Лео Ли, Уильям Джордан, Дэвид Ст. Джеймс, Джилл Догерти, Хэйнс Брук, Джон Холлиман, Бобби Баттис Описание: Радиоастроном доктор Элли Эрроуэй мечтала о звездах с детских лет, когда вместе с отцом занималась радиолюбительством и выходила на связь в эфир. Она рано потеряла родителей и думала, что они где-то далеко, в пространстве… Формат: MKV Качество: BDRemux 1080p Видео : MPEG-4/AVC, 1920x1080, 32.6 Mb/s, 0.655 бит/(Пиксели*Кадры), 23.976 fps Аудио 01: AC-3, 6 ch, 448 kbps - Русский, DUB | Мост-Видео Аудио 02: AC-3, 2 ch, 192 kbps - Русский, DUB | Варус Видео Аудио 03: AC-3, 2 ch, 192 kbps - Русский, DVO | ТК Россия Аудио 04: DTS, 6 ch, 1509 kbps - Русский, AVO | Ю.Живов Аудио 05: AC-3, 2 ch, 192 kbps - Русский, AVO | С.Визгунов Аудио 06: AC-3, 6 ch, 384 kbps - Украинский, MVO | Новый канал Аудио 07: DTS-HD MA, 6 ch, 2290 kbps - Английский Аудио 08: AC-3, 2 ch, 192 kbps - Commentary with Director Robert Zemeckis and producer Steve Starkey Аудио 09: AC-3, 2 ch, 192 kbps - Commentary with Actor Jodie Foster Аудио 10: AC-3, 2 ch, 192 kbps - Commentary with Visual effects supervisors Ken Ralston and Steven Rosenbaum Субтитры: Русские, английские
[+] MediainfoGeneral Unique ID : 169535966856703342868525164791926022295 (0x7F8B70848379AB4484EFF3ABDF1AE097) Complete name : Contact.1997.1080p.BDRemux.mkv Format : Matroska Format version : Version 4 File size : 40.1 GiB Duration : 2 h 29 min Overall bit rate mode : Variable Overall bit rate : 38.3 Mb/s Frame rate : 23.976 FPS Encoded date : 2024-06-26 15:49:30 UTC Writing application : mkvmerge v84.0 ('Sleeper') 64-bit Writing library : libebml v1.4.5 + libmatroska v1.7.1 Video ID : 1 ID in the original source medium : 4113 (0x1011) Format : AVC Format/Info : Advanced Video Codec Format profile : High@L4.1 Format settings : CABAC / 4 Ref Frames Format settings, CABAC : Yes Format settings, Reference frames : 4 frames Codec ID : V_MPEG4/ISO/AVC Duration : 2 h 29 min Bit rate mode : Variable Bit rate : 32.6 Mb/s Maximum bit rate : 35.0 Mb/s Width : 1 920 pixels Height : 1 080 pixels Display aspect ratio : 16:9 Frame rate mode : Constant Frame rate : 23.976 (24000/1001) FPS Color space : YUV Chroma subsampling : 4:2:0 Bit depth : 8 bits Scan type : Progressive Bits/(Pixel*Frame) : 0.655 Stream size : 34.0 GiB (85%) Default : Yes Forced : No Original source medium : Blu-ray Audio #1 ID : 2 Format : AC-3 Format/Info : Audio Coding 3 Commercial name : Dolby Digital Codec ID : A_AC3 Duration : 2 h 29 min Bit rate mode : Constant Bit rate : 448 kb/s Channel(s) : 6 channels Channel layout : L R C LFE Ls Rs Sampling rate : 48.0 kHz Frame rate : 31.250 FPS (1536 SPF) Compression mode : Lossy Stream size : 480 MiB (1%) Title : Dub, Мост-Видео Language : Russian Service kind : Complete Main Default : Yes Forced : No Audio #2 ID : 3 Format : AC-3 Format/Info : Audio Coding 3 Commercial name : Dolby Digital Codec ID : A_AC3 Duration : 2 h 29 min Bit rate mode : Constant Bit rate : 192 kb/s Channel(s) : 2 channels Channel layout : L R Sampling rate : 48.0 kHz Frame rate : 31.250 FPS (1536 SPF) Compression mode : Lossy Stream size : 206 MiB (1%) Title : Dub, Варус Видео Language : Russian Service kind : Complete Main Default : No Forced : No Audio #3 ID : 4 Format : AC-3 Format/Info : Audio Coding 3 Commercial name : Dolby Digital Codec ID : A_AC3 Duration : 2 h 29 min Bit rate mode : Constant Bit rate : 192 kb/s Channel(s) : 2 channels Channel layout : L R Sampling rate : 48.0 kHz Frame rate : 31.250 FPS (1536 SPF) Compression mode : Lossy Stream size : 206 MiB (1%) Title : DVO, ТК Россия Language : Russian Service kind : Complete Main Default : No Forced : No Audio #4 ID : 5 Format : DTS Format/Info : Digital Theater Systems Codec ID : A_DTS Duration : 2 h 29 min Bit rate mode : Constant Bit rate : 1 509 kb/s Channel(s) : 6 channels Channel layout : C L R Ls Rs LFE Sampling rate : 48.0 kHz Frame rate : 93.750 FPS (512 SPF) Bit depth : 24 bits Compression mode : Lossy Stream size : 1.58 GiB (4%) Title : AVO, Живов Language : Russian Default : No Forced : No Audio #5 ID : 6 Format : AC-3 Format/Info : Audio Coding 3 Commercial name : Dolby Digital Codec ID : A_AC3 Duration : 2 h 29 min Bit rate mode : Constant Bit rate : 192 kb/s Channel(s) : 2 channels Channel layout : L R Sampling rate : 48.0 kHz Frame rate : 31.250 FPS (1536 SPF) Compression mode : Lossy Stream size : 206 MiB (1%) Title : AVO, Визгунов Language : Russian Service kind : Complete Main Default : No Forced : No Audio #6 ID : 7 Format : AC-3 Format/Info : Audio Coding 3 Commercial name : Dolby Digital Codec ID : A_AC3 Duration : 2 h 29 min Bit rate mode : Constant Bit rate : 384 kb/s Channel(s) : 6 channels Channel layout : L R C LFE Ls Rs Sampling rate : 48.0 kHz Frame rate : 31.250 FPS (1536 SPF) Compression mode : Lossy Stream size : 411 MiB (1%) Language : Ukrainian Service kind : Complete Main Default : No Forced : No Audio #7 ID : 8 ID in the original source medium : 4352 (0x1100) Format : DTS XLL Format/Info : Digital Theater Systems Commercial name : DTS-HD Master Audio Codec ID : A_DTS Duration : 2 h 29 min Bit rate mode : Variable Bit rate : 2 290 kb/s Channel(s) : 6 channels Channel layout : C L R Ls Rs LFE Sampling rate : 48.0 kHz Frame rate : 93.750 FPS (512 SPF) Bit depth : 16 bits Compression mode : Lossless Stream size : 2.39 GiB (6%) Title : Original Language : English Default : No Forced : No Original source medium : Blu-ray Audio #8 ID : 9 Format : AC-3 Format/Info : Audio Coding 3 Commercial name : Dolby Digital Format settings : Dolby Surround Codec ID : A_AC3 Duration : 2 h 29 min Bit rate mode : Constant Bit rate : 192 kb/s Channel(s) : 2 channels Channel layout : L R Sampling rate : 48.0 kHz Frame rate : 31.250 FPS (1536 SPF) Compression mode : Lossy Stream size : 206 MiB (1%) Title : Commentary with Director Robert Zemeckis and producer Steve Starkey Language : English Service kind : Complete Main Default : No Forced : No Audio #9 ID : 10 Format : AC-3 Format/Info : Audio Coding 3 Commercial name : Dolby Digital Format settings : Dolby Surround Codec ID : A_AC3 Duration : 2 h 29 min Bit rate mode : Constant Bit rate : 192 kb/s Channel(s) : 2 channels Channel layout : L R Sampling rate : 48.0 kHz Frame rate : 31.250 FPS (1536 SPF) Compression mode : Lossy Stream size : 206 MiB (1%) Title : Commentary with Actor Jodie Foster Language : English Service kind : Complete Main Default : No Forced : No Audio #10 ID : 11 Format : AC-3 Format/Info : Audio Coding 3 Commercial name : Dolby Digital Format settings : Dolby Surround Codec ID : A_AC3 Duration : 2 h 29 min Bit rate mode : Constant Bit rate : 192 kb/s Channel(s) : 2 channels Channel layout : L R Sampling rate : 48.0 kHz Frame rate : 31.250 FPS (1536 SPF) Compression mode : Lossy Stream size : 206 MiB (1%) Title : Commentary with Visual effects supervisors Ken Ralston and Steven Rosenbaum Language : English Service kind : Complete Main Default : No Forced : No Text #1 ID : 12 Format : UTF-8 Codec ID : S_TEXT/UTF8 Codec ID/Info : UTF-8 Plain Text Duration : 2 h 21 min Bit rate : 95 b/s Frame rate : 0.222 FPS Count of elements : 1880 Stream size : 98.9 KiB (0%) Title : Full Language : Russian Default : No Forced : No Text #2 ID : 13 Format : UTF-8 Codec ID : S_TEXT/UTF8 Codec ID/Info : UTF-8 Plain Text Duration : 2 h 19 min Bit rate : 68 b/s Frame rate : 0.212 FPS Count of elements : 1774 Stream size : 70.2 KiB (0%) Title : Full Language : English Default : No Forced : No Text #3 ID : 14 ID in the original source medium : 4608 (0x1200) Format : PGS Muxing mode : zlib Codec ID : S_HDMV/PGS Codec ID/Info : Picture based subtitle format used on BDs/HD-DVDs Duration : 2 h 19 min Bit rate : 43.2 kb/s Frame rate : 0.424 FPS Count of elements : 3548 Stream size : 43.0 MiB (0%) Title : Full PGS Language : English Default : No Forced : No Original source medium : Blu-ray Text #4 ID : 15 Format : UTF-8 Codec ID : S_TEXT/UTF8 Codec ID/Info : UTF-8 Plain Text Duration : 2 h 19 min Bit rate : 70 b/s Frame rate : 0.216 FPS Count of elements : 1809 Stream size : 72.5 KiB (0%) Title : SDH Language : English Default : No Forced : No Menu 00:00:00.000 : en:Chapter 01 00:08:16.621 : en:Chapter 02 00:14:29.159 : en:Chapter 03 00:21:17.776 : en:Chapter 04 00:25:21.061 : en:Chapter 05 00:31:11.744 : en:Chapter 06 00:36:04.287 : en:Chapter 07 00:43:49.126 : en:Chapter 08 00:49:34.972 : en:Chapter 09 01:00:39.969 : en:Chapter 10 01:11:56.270 : en:Chapter 11 01:20:23.568 : en:Chapter 12 01:29:13.389 : en:Chapter 13 01:37:16.163 : en:Chapter 14 01:44:00.275 : en:Chapter 15 01:51:36.648 : en:Chapter 16 02:00:39.065 : en:Chapter 17 02:09:42.900 : en:Chapter 18 02:16:06.241 : en:Chapter 19 02:20:11.236 : en:Chapter 20
[+] Скриншоты

Всего файлов в раздаче: 1 
Contact.1997.1080p.BDRemux.Rutracker.mkv40.11 GB

Комментарии


Зарегистрируйтесь чтобы добавить комментарий
Торрент клиент
byTorrent - программа для загрузки торрент-файлов.

Скачать byTorrent.exe (1,5 МБ)

Скачать byTorrent.zip (0,6 МБ)

Поддержи torrent.by
российских рублей
(300 российских рублей это 4$)

Обратная связь rss

End game ©