↑↓torrent.by
Поиск
Логин:  Регистрация
Пароль:

Полупановы [S01] (2024) HDTV 1080p от Files-x

download Скачать торрент-файл   magnet Магнитная ссылка Размер: 14.54 GB Добавлен: 2024-06-28 05:00
Пиры будут получены из сети DHT
Последний сидер был замечен 2024-06-29 13:21
Информация о фильме Оригинальное название: Полупановы Год выхода: 2024 Жанр: Комедия Режиссер: Алексей Смирнов (VI) В ролях: Дмитрий Степашин, Елена Федотова (II), Артём Молоканов, Надежда Просвирнина, Антон Просвирнин, Тимофей Зайцев, Михаил Горевой, Александр Половцев, Максим Коновалов, Софья Зайка, Степан Девонин, Даня Киселёв, Степан Абрамов, Анна Хилькевич, Эльдар Джарахов, Доминик Джокер, Амирчик О фильме: Социальный работник Наталья приезжает в частный старый дом к семье Полупановых, чтобы переселить их в более комфортные условия по государственной программе реновации. Но этот процесс затягивается, так как Полупановы – не совсем обычная семья. Так как Полупановых абсолютно не интересуют деньги, Наталья на протяжении всего сезона использует любые методы, которые помогут переселить семью: от выдуманных приведений в доме и приглашения органов опеки до организации бунта посёлка против Полупановых. Но каждый раз, сталкиваясь со странностью Полупановых, её попытки завершаются неудачей. Страна: Россия Студия: ТНТ, PREMIER, ПЕНЗФИЛЬММАШ Продолжительность: 13 x ~ 00:23:30 Перевод: Не требуется Файл Кодек: h.264 Качество: HDTV 1080p Видео: MPEG-4 AVC, ~ 6500 Кбит/с, 1920x1080, 25 кадр/с Звук: MP2, 2 ch, 192 Кбит/с
[+] Скриншоты
[+] MediaInfo General ID : 1 (0x1) Complete name : C:01.Полупановы.s01.E01.(2024).HDTV.(1080р).by.Nicodem.Files-x.ts Format : MPEG-TS File size : 1.18 GiB Duration : 24mn 4s Overall bit rate : 7 041 Kbps Maximum Overall bit rate : 35.5 Mbps Video ID : 4113 (0x1011) Menu ID : 1 (0x1) Format : AVC Format/Info : Advanced Video Codec Format profile : High@L4.1 Format settings, CABAC : No Format settings, ReFrames : 3 frames Codec ID : 27 Duration : 24mn 4s Bit rate mode : Variable Bit rate : 6 500 Kbps Maximum bit rate : 40.0 Mbps Width : 1 920 pixels Height : 1 080 pixels Display aspect ratio : 16:9 Frame rate : 25.000 fps Color space : YUV Chroma subsampling : 4:2:0 Bit depth : 8 bits Scan type : Progressive Bits/(Pixel*Frame) : 0.125 Stream size : 1.09 GiB (92%) Language : English Audio ID : 4352 (0x1100) Menu ID : 1 (0x1) Format : MPEG Audio Format version : Version 1 Format profile : Layer 2 Codec ID : 4 Duration : 24mn 4s Bit rate mode : Constant Bit rate : 192 Kbps Channel(s) : 2 channels Sampling rate : 48.0 KHz Compression mode : Lossy Stream size : 33.1 MiB (3%)
Релиз от:

Всего файлов в раздаче: 13 
01.Полупановы.s01.E01.(2024).HDTV.(1080р).by.Nicodem.Files-x.ts1.18 GB
02.Полупановы.s01.E02.(2024).HDTV.(1080р).by.Nicodem.Files-x.ts1.16 GB
03.Полупановы.s01.E03.(2024).HDTV.(1080р).by.Nicodem.Files-x.ts1.10 GB
04.Полупановы.s01.E04.(2024).HDTV.(1080р).by.Nicodem.Files-x.ts1.19 GB
05.Полупановы.s01.E05.(2024).HDTV.(1080р).by.Nicodem.Files-x.ts1.08 GB
06.Полупановы.s01.E06.(2024).HDTV.(1080р).by.Nicodem.Files-x.ts1.16 GB
07.Полупановы.s01.E07.(2024).HDTV.(1080р).by.Nicodem.Files-x.ts1.13 GB
08.Полупановы.s01.E08.(2024).HDTV.(1080р).by.Nicodem.Files-x.ts1020.27 MB
09.Полупановы.s01.E09.(2024).HDTV.(1080р).by.Nicodem.Files-x.ts1.06 GB
10.Полупановы.s01.E10.(2024).HDTV.(1080р).by.Nicodem.Files-x.ts1.09 GB
Показать все файлы

Похожие раздачи по запросу - Полупановы
2024-07-02 magnet Полупановы [S01] (2024) WEBRip-AVC от Generalfilm | КПК 1.35 GB ↑ 0 ↓ 0
2024-06-29 magnet Полупановы [S01] (2024) WEBRip от Files-x 1К3.82 GB ↑ 0 ↓ 0
2024-06-28 magnet Полупановы [S01] (2024) WEBRip-AVC от Files-x 3.81 GB ↑ 0 ↓ 0
2024-06-28 magnet Полупановы [S01] (2024) WEBRip 1080p 9.94 GB ↑ 0 ↓ 0
2024-06-27 magnet Полупановы [01-06 из 13] (2024) WEBRip от Files-x 1.80 GB ↑ 0 ↓ 0
2024-06-27 magnet Полупановы [01х01-09 из 13] (2024) WEBRip-AVC от Files-x 2.63 GB ↑ 0 ↓ 0
2024-06-27 magnet Полупановы [01-09 из 13] (2024) WEBRip 1080p 6.87 GB ↑ 0 ↓ 0

Комментарии


Зарегистрируйтесь чтобы добавить комментарий
Торрент клиент
byTorrent - программа для загрузки торрент-файлов.

Скачать byTorrent.exe (1,5 МБ)

Скачать byTorrent.zip (0,6 МБ)

Поддержи torrent.by
российских рублей
(300 российских рублей это 4$)

Обратная связь rss

End game ©