↑↓torrent.by
Поиск
Логин:  Регистрация
Пароль:

Фуриоса: Хроники Безумного Макса / Furiosa: A Mad Max Saga (2024) WEB-DLRip 720p от DoMiNo & селезень | P, A | HDRezka, Яроцкий

download Скачать торрент-файл   magnet Магнитная ссылка Размер: 4.30 GB Добавлен: 2024-06-28 05:00
Пиры будут получены из сети DHT
Последний сидер был замечен 2024-07-12 21:44
Информация о фильме Название: Фуриоса: Хроники Безумного Макса Оригинальное название: Furiosa: A Mad Max Saga Год выпуска: 2024 Жанр: фантастика, боевик Режиссер: Джордж Миллер / George Miller В ролях: Аня Тейлор-Джой, Крис Хемсворт, Том Бёрк, Алила Браун, Джордж Шевцов, Лейчи Халм, Джон Ховард, Энгус Сэмпсон, Чарли Фрейзер, Эльза Патаки О фильме: История похищения юной воительницы Фуриосы из Зелёных Земель, в результате которого девушка попадает в руки орды байкеров под предводительством Военачальника Дементуса. Пробираясь через Пустошь, они натыкаются на Цитадель, которой управляет Бессмертный Джо, и пока два тирана борются за господство, Фуриосе предстоит пережить множество испытаний, пытаясь найти путь домой. Выпущено: Австралия, США / Warner Bros., Kennedy Miller Mitchell Продолжительность: 02:28:11 Перевод 1: Профессиональный (многоголосый, закадровый) | HDRezka Studio Перевод 2: Авторский (одноголосый, закадровый) | М. Яроцкий 18+ Субтитры: Русские (Forced, Full -FOCS), английские (Full, SDH) Файл Формат: Matroska Качество: WEB-DLRip 720p Видео: 1280x536 at 23.976 fps, x264@L4.1, ~3065 kbps Аудио 1: AC3, 2 ch, ~192 kbps - | Русский | | HDRezka Studio Аудио 2: AC3, 6 ch, ~448 kbps - | Русский | | М. Яроцкий 18+ Аудио 3: AC3, 6 ch, ~448 kbps - | Английский | | Original Формат субтитров: softsub (SRT) ***Рип от: -=DoMiNo=- *** Дебандинг, зерно.
[+] M/IGeneral Unique ID : 334528511193366101919292290971927367732 (0xFBABD9029884F27EEB05B6D2B3E4D034) Complete name : U:Furiosa.A.Mad.Max.Saga.2024.AVO.WEB-DLRip.720p.x264.seleZen.mkv Format : Matroska Format version : Version 4 File size : 4.30 GiB Duration : 2 h 28 min Overall bit rate : 4 155 kb/s Frame rate : 23.976 FPS Movie name : Furiosa.A.Mad.Max.Saga.2024.AVO.WEB-DLRip.720p.x264.seleZen Encoded date : 2024-06-27 16:25:00 UTC Writing application : mkvmerge v85.0 ('Shame For You') 64-bit Writing library : libebml v1.4.5 + libmatroska v1.7.1 Cover : Yes Attachments : cover.jpg / small_cover.jpg Video ID : 1 Format : AVC Format/Info : Advanced Video Codec Format profile : High@L4.1 Format settings : CABAC / 5 Ref Frames Format settings, CABAC : Yes Format settings, Reference : 5 frames Codec ID : V_MPEG4/ISO/AVC Duration : 2 h 28 min Bit rate : 3 065 kb/s Width : 1 280 pixels Height : 536 pixels Display aspect ratio : 2.39:1 Frame rate mode : Constant Frame rate : 23.976 (24000/1001) FPS Color space : YUV Chroma subsampling : 4:2:0 Bit depth : 8 bits Scan type : Progressive Bits/(Pixel*Frame) : 0.186 Stream size : 3.17 GiB (74%) Title : -=DoMiNo=- Writing library : x264 core 164 r3191 -DoMiNo Encoding settings : cabac=1 / ref=5 / deblock=1:-2:-1 / analyse=0x3:0x133 / me=umh / subme=10 / psy=1 / psy_rd=1.00:0.15 / mixed_ref=1 / me_range=32 / chroma_me=1 / trellis=2 / 8x8dct=1 / cqm=0 / deadzone=21,11 / fast_pskip=0 / chroma_qp_offset=-3 / threads=17 / lookahead_threads=4 / sliced_threads=0 / nr=0 / decimate=1 / interlaced=0 / bluray_compat=0 / constrained_intra=0 / bframes=12 / b_pyramid=2 / b_adapt=2 / b_bias=0 / direct=3 / weightb=1 / open_gop=0 / weightp=2 / keyint=240 / keyint_min=23 / scenecut=40 / intra_refresh=0 / rc_lookahead=60 / rc=crf / mbtree=0 / crf=18.8 / qcomp=0.60 / qpmin=0 / qpmax=69 / qpstep=4 / vbv_maxrate=50000 / vbv_bufsize=62500 / crf_max=0.0 / nal_hrd=none / filler=0 / ip_ratio=1.40 / pb_ratio=1.30 / aq=1:0.90 Language : English Default : Yes Forced : No Color range : Limited Color primaries : BT.709 Transfer characteristics : BT.709 Matrix coefficients : BT.709 Audio #1 ID : 2 Format : AC-3 Format/Info : Audio Coding 3 Commercial name : Dolby Digital Codec ID : A_AC3 Duration : 2 h 28 min Bit rate mode : Constant Bit rate : 192 kb/s Channel(s) : 2 channels Channel layout : L R Sampling rate : 48.0 kHz Frame rate : 31.250 FPS (1536 SPF) Compression mode : Lossy Stream size : 204 MiB (5%) Title : HDRezka Language : Russian Service kind : Complete Main Default : Yes Forced : No Dialog Normalization : -31 dB dialnorm_Average : -31 dB dialnorm_Minimum : -31 dB dialnorm_Maximum : -31 dB Audio #2 ID : 3 Format : AC-3 Format/Info : Audio Coding 3 Commercial name : Dolby Digital Codec ID : A_AC3 Duration : 2 h 28 min Bit rate mode : Constant Bit rate : 448 kb/s Channel(s) : 6 channels Channel layout : L R C LFE Ls Rs Sampling rate : 48.0 kHz Frame rate : 31.250 FPS (1536 SPF) Compression mode : Lossy Stream size : 475 MiB (11%) Title : М. Яроцкий 18+ Language : Russian Service kind : Complete Main Default : No Forced : No Dialog Normalization : -24 dB compr : -0.28 dB cmixlev : -3.0 dB surmixlev : -3 dB mixlevel : 285 dB roomtyp : 3 ltrtcmixlev : -3.0 dB ltrtsurmixlev : -3.0 dB lorocmixlev : -3.0 dB lorosurmixlev : -4.5 dB dialnorm_Average : -24 dB dialnorm_Minimum : -24 dB dialnorm_Maximum : -24 dB Audio #3 ID : 4 Format : AC-3 Format/Info : Audio Coding 3 Commercial name : Dolby Digital Codec ID : A_AC3 Duration : 2 h 28 min Bit rate mode : Constant Bit rate : 448 kb/s Channel(s) : 6 channels Channel layout : L R C LFE Ls Rs Sampling rate : 48.0 kHz Frame rate : 31.250 FPS (1536 SPF) Compression mode : Lossy Stream size : 475 MiB (11%) Language : English Service kind : Complete Main Default : No Forced : No Dialog Normalization : -31 dB cmixlev : -4.5 dB surmixlev : -6 dB dialnorm_Average : -31 dB dialnorm_Minimum : -31 dB dialnorm_Maximum : -31 dB Text #1 ID : 5 Format : UTF-8 Codec ID : S_TEXT/UTF8 Codec ID/Info : UTF-8 Plain Text Duration : 2 h 0 min Bit rate : 0 b/s Frame rate : 0.001 FPS Count of elements : 7 Stream size : 289 Bytes (0%) Title : Forced Language : Russian Default : No Forced : No Text #2 ID : 6 Format : UTF-8 Codec ID : S_TEXT/UTF8 Codec ID/Info : UTF-8 Plain Text Duration : 2 h 17 min Bit rate : 45 b/s Frame rate : 0.127 FPS Count of elements : 1052 Stream size : 45.9 KiB (0%) Title : Full -FOCS Language : Russian Default : No Forced : No Text #3 ID : 7 Format : UTF-8 Codec ID : S_TEXT/UTF8 Codec ID/Info : UTF-8 Plain Text Duration : 2 h 16 min Bit rate : 28 b/s Frame rate : 0.128 FPS Count of elements : 1050 Stream size : 28.1 KiB (0%) Title : Full Language : English Default : No Forced : No Text #4 ID : 8 Format : UTF-8 Codec ID : S_TEXT/UTF8 Codec ID/Info : UTF-8 Plain Text Duration : 2 h 17 min Bit rate : 36 b/s Frame rate : 0.170 FPS Count of elements : 1401 Stream size : 36.7 KiB (0%) Title : SDH Language : English Default : No Forced : No Menu 00:00:00.000 : en:Chapter 01 00:05:50.000 : en:Chapter 02 00:11:40.000 : en:Chapter 03 00:17:30.000 : en:Chapter 04 00:23:20.000 : en:Chapter 05 00:29:10.000 : en:Chapter 06 00:35:00.000 : en:Chapter 07 00:40:50.000 : en:Chapter 08 00:46:40.000 : en:Chapter 09 00:52:30.000 : en:Chapter 10 00:58:20.000 : en:Chapter 11 01:04:10.000 : en:Chapter 12 01:10:00.000 : en:Chapter 13 01:15:50.000 : en:Chapter 14 01:21:40.000 : en:Chapter 15 01:27:30.000 : en:Chapter 16 01:33:20.000 : en:Chapter 17 01:39:10.000 : en:Chapter 18 01:45:00.000 : en:Chapter 19 01:50:50.000 : en:Chapter 20 01:56:40.000 : en:Chapter 21 02:02:30.000 : en:Chapter 22 02:08:20.000 : en:Chapter 23 02:14:10.000 : en:Chapter 24 02:20:00.000 : en:Chapter 25 02:25:50.000 : en:Chapter 26
Релиз: Присоединяйся к: Кликай на баннеры.

Всего файлов в раздаче: 1 
Furiosa.A.Mad.Max.Saga.2024.AVO.WEB-DLRip.720p.x264.seleZen.mkv4.30 GB

Похожие раздачи по запросу - Фуриоса
2024-07-15 magnet Фуриоса: Хроники Безумного Макса / Фуріоза: Шалений Макс. Сага / Furiosa: A Mad Max Saga (2024) WEB-DL-HEVC 2160p | 4K | SDR | D | UKR 26.45 GB ↑ 0 ↓ 1
2024-07-06 magnet Фуриоса: Хроники Безумного Макса / Furiosa: A Mad Max Saga (2024) UHD WEB-DL 2160p | 4K | HDR | Dolby Vision Profile 8 | D, P, A 31.04 GB ↑ 2 ↓ 9
2024-07-03 magnet Фуриоса: Хроники Безумного Макса / Furiosa: A Mad Max Saga (2024) WEB-DLRip-AVC | КПК | D, P | Red Head Sound, HDrezka Studio 805.80 MB ↑ 0 ↓ 1
2024-07-03 magnet Фуриоса: Хроники Безумного Макса / Furiosa: A Mad Max Saga [2024, фантастика, боевик, WEB-DLRip-AVC] Dub 2.18 GB ↑ 0 ↓ 2
2024-07-01 magnet Фуриоса: Хроники Безумного Макса / Furiosa: A Mad Max Saga (2024) WEB-DLRip 1080p | D, P, A | Movie Dubbing, RHS, LostFilm, HDrezka, Jaskier, TVShows, Яроцкий 22.53 GB ↑ 1 ↓ 3
2024-06-30 magnet Фуриоса: Хроники Безумного Макса / Furiosa: A Mad Max Saga (2024) WEB-DLRip от DoMiNo & селезень | D | Red Head Sound 1.47 GB ↑ 0 ↓ 1
2024-06-30 magnet Фуриоса: Хроники Безумного Макса / Furiosa: A Mad Max Saga (2024) UHD WEB-DL HEVC 2160p | 4K | Dolby Vision TV | D | Movie Dubbing, Red Head Sound 27.00 GB ↑ 0 ↓ 1

Комментарии


Зарегистрируйтесь чтобы добавить комментарий
Торрент клиент
byTorrent - программа для загрузки торрент-файлов.

Скачать byTorrent.exe (1,5 МБ)

Скачать byTorrent.zip (0,6 МБ)

Поддержи torrent.by
российских рублей
(300 российских рублей это 4$)

Обратная связь rss

End game ©