↑↓torrent.by
Поиск
Логин:  Регистрация
Пароль:

Разбой / Break (2024) WEB-DLRip-AVC | L

download Скачать торрент-файл   magnet Магнитная ссылка Размер: 2.05 GB Раздают: 6 Качают: 0 Добавлен: il68k 2024-06-28 09:01
Пиры будут получены из сети DHT
Последний сидер был замечен сегодня в 16:01
Информация о фильме Название: Разбой Оригинальное название: Break Год выхода: 2024 Жанр: драма Режиссер: Уилл Верник В ролях: Джефф Кобер, Патриция Белчер, Даррен Уайсс, Юрайа Шелтон, Виктор Разук, Калеб Эмери, Венди Браун, Стив Ричард Харрис, Ивэн Шафран О фильме: История 20-летнего Илая, который совмещает две работы, изо всех сил стараясь заботиться о своей сестре и матери. Однажды череда неожиданных событий знакомит его с миром бильярда, где Илай узнает, что его отец когда-то был легендой бильярда Детройта. Илаю предстоит столкнуться с суровой реальностью и опасностями игры, а также разобраться в самом себе. Страна: США Студия: Showdown Productions Продолжительность: 01:46:31 Перевод: Любительский (многоголосый закадровый) RGB Файл Формат: MKV Качество: WEB-DLRip-AVC Видео: MPEG-4 AVC, 1984 kbps, 1024x428 (2.39:1), 23.976 fps, 0.189 bit/pixel, High@L4.1 Звук 1: 48 kHz, AC3 Dolby Digital, 3/2 (L, C, R, l, r) + LFE ch, ~384 kbps | RGB Звук 2: 48 kHz, AC3 Dolby Digital, 3/2 (L, C, R, l, r) + LFE ch, ~384 kbps | Английский Субтитры: английские (full, SDH) Семпл
[+] Скриншоты
[+] MediaInfo raw : 1024x428p 1:1 @ 24000/1001 fps (cfr) x264 : using SAR=1/1 x264 : using cpu capabilities: MMX2 SSE2Fast SSSE3 SSE4.2 AVX FMA3 BMI2 AVX2 x264 : profile High, level 4.1, 4:2:0, 8-bit x264 : frame I:1449 Avg QP:13.85 size: 61160 x264 : frame P:30217 Avg QP:16.35 size: 22059 x264 : frame B:121569 Avg QP:17.67 size: 6823 x264 : consecutive B-frames: 1.6% 1.5% 3.6% 13.2% 21.0% 53.5% 3.4% 1.6% 0.3% 0.2% 0.1% 0.1% 0.1% x264 : mb I I16..4: 14.1% 75.7% 10.2% x264 : mb P I16..4: 1.0% 14.1% 0.6% P16..4: 35.3% 30.5% 17.3% 0.0% 0.0% skip: 1.3% x264 : mb B I16..4: 0.0% 0.4% 0.0% B16..8: 41.7% 14.1% 4.1% direct: 5.7% skip:34.0% L0:47.7% L1:43.6% BI: 8.7% x264 : 8x8 transform intra:86.6% inter:56.1% x264 : direct mvs spatial:97.4% temporal:2.6% x264 : coded y, uvDC, uvAC intra: 95.5% 75.2% 60.1% inter: 30.1% 17.1% 6.7% x264 : i16 v, h, dc, p: 24% 12% 32% 31% x264 : i8 v, h, dc, ddl, ddr, vr, hd, vl, hu: 9% 8% 17% 9% 12% 11% 11% 11% 12% x264 : i4 v, h, dc, ddl, ddr, vr, hd, vl, hu: 11% 9% 3% 9% 15% 14% 14% 11% 12% x264 : i8c dc, h, v, p: 51% 23% 15% 11% x264 : Weighted P-Frames: Y:1.9% UV:0.7% x264 : ref P L0: 43.1% 7.3% 18.3% 6.9% 6.0% 4.0% 3.8% 1.9% 1.9% 1.4% 1.4% 1.1% 1.1% 0.9% 1.0% 0.0% x264 : ref B L0: 65.5% 13.3% 6.9% 3.6% 2.5% 2.1% 1.6% 1.0% 0.8% 0.8% 0.6% 0.6% 0.4% 0.2% x264 : ref B L1: 93.6% 6.4% x264 : kb/s:1983.51 x264 : encoded 153235 frames, 11.50 fps, 1983.51 kb/s =============================================================== General Unique ID: 249323435813122353390994089715908956964 (0xBB91F2744B2C06A1E0236EC1A6975324) Complete name: D:\Break.2024.AMZN.WEB-DLRip.AVC.mkv Format: Matroska Format version: Version 4 File size: 2.05 GiB Duration: 1 h 46 min Overall bit rate: 2 753 kb/s Frame rate: 23.976 FPS Movie name: Break (2024) WEB-DLRip-AVC _ vitolinform Encoded date: 2024-06-27 20:40:05 UTC Writing application: mkvmerge v85.0 ('Shame For You') 64-bit Writing library: libebml v1.4.5 + libmatroska v1.7.1 Attachments: poster.jpg / log.log Video ID: 1 Format: AVC Format/Info: Advanced Video Codec Format profile: High@L4.1 Format settings: CABAC / 15 Ref Frames Format settings, CABAC: Yes Format settings, Reference frames: 15 frames Codec ID: V_MPEG4/ISO/AVC Duration: 1 h 46 min Bit rate: 1 984 kb/s Width: 1 024 pixels Height: 428 pixels Display aspect ratio: 2.39:1 Frame rate mode: Constant Frame rate: 23.976 (24000/1001) FPS Color space: YUV Chroma subsampling: 4:2:0 Bit depth: 8 bits Scan type: Progressive Bits/(Pixel*Frame): 0.189 Stream size: 1.48 GiB (72%) Title: Разбой / Break (2024) Writing library: x264 core 164 r3182 be4f020 Encoding settings: cabac=1 / ref=15 / deblock=1:-3:-3 / analyse=0x3:0x113 / me=umh / subme=10 / psy=1 / psy_rd=1.00:0.05 / mixed_ref=1 / me_range=32 / chroma_me=1 / trellis=2 / 8x8dct=1 / cqm=0 / deadzone=21, 11 / fast_pskip=0 / chroma_qp_offset=-3 / threads=12 / lookahead_threads=3 / sliced_threads=0 / nr=0 / decimate=0 / interlaced=0 / bluray_compat=0 / constrained_intra=0 / bframes=12 / b_pyramid=2 / b_adapt=2 / b_bias=0 / direct=3 / weightb=1 / open_gop=0 / weightp=2 / keyint=240 / keyint_min=24 / scenecut=40 / intra_refresh=0 / rc_lookahead=60 / rc=2pass / mbtree=0 / bitrate=1984 / ratetol=1.0 / qcomp=0.60 / qpmin=0 / qpmax=69 / qpstep=4 / cplxblur=20.0 / qblur=0.5 / vbv_maxrate=50000 / vbv_bufsize=62500 / nal_hrd=none / filler=0 / ip_ratio=1.40 / pb_ratio=1.30 / aq=1:1.00 Language: English Default: Yes Forced: No Color range: Limited Color primaries: BT.709 Transfer characteristics: BT.709 Matrix coefficients: BT.709 Audio #1 ID: 2 Format: AC-3 Format/Info: Audio Coding 3 Commercial name: Dolby Digital Codec ID: A_AC3 Duration: 1 h 46 min Bit rate mode: Constant Bit rate: 384 kb/s Channel(s): 6 channels Channel layout: L R C LFE Ls Rs Sampling rate: 48.0 kHz Frame rate: 31.250 FPS (1536 SPF) Compression mode: Lossy Stream size: 293 MiB (14%) Title: MVO | RGB Language: Russian Service kind: Complete Main Default: Yes Forced: No Audio #2 ID: 3 Format: AC-3 Format/Info: Audio Coding 3 Commercial name: Dolby Digital Codec ID: A_AC3 Duration: 1 h 46 min Bit rate mode: Constant Bit rate: 384 kb/s Channel(s): 6 channels Channel layout: L R C LFE Ls Rs Sampling rate: 48.0 kHz Frame rate: 31.250 FPS (1536 SPF) Compression mode: Lossy Stream size: 293 MiB (14%) Title: English Language: English Service kind: Complete Main Default: No Forced: No Text #1 ID: 4 Format: UTF-8 Codec ID: S_TEXT/UTF8 Codec ID/Info: UTF-8 Plain Text Duration: 1 h 41 min Bit rate: 49 b/s Frame rate: 0.216 FPS Count of elements: 1317 Stream size: 36.8 KiB (0%) Title: Full Language: English Default: No Forced: No Text #2 ID: 5 Format: UTF-8 Codec ID: S_TEXT/UTF8 Codec ID/Info: UTF-8 Plain Text Duration: 1 h 46 min Bit rate: 59 b/s Frame rate: 0.253 FPS Count of elements: 1612 Stream size: 46.4 KiB (0%) Title: SDH Language: English Default: No Forced: No
Rip by vitolinform

Всего файлов в раздаче: 1 
Break.2024.AMZN.WEB-DLRip.AVC.mkv2.05 GB

Похожие раздачи по запросу - Разбой
2024-06-27 magnet Разбой / Break (2024) WEB-DLRip от AR-Team | L | RGB 1.46 GB ↑ 0 ↓ 0
2024-06-27 magnet Разбой / Break (2024) WEB-DLRip-AVC | L 1.63 GB ↑ 5 ↓ 0
2024-06-27 magnet Разбой / Break (2024) WEB-DL 1080p | L 8.08 GB ↑ 29 ↓ 1

Комментарии


Зарегистрируйтесь чтобы добавить комментарий
Торрент клиент
byTorrent - программа для загрузки торрент-файлов.

Скачать byTorrent.exe (1,5 МБ)

Скачать byTorrent.zip (0,6 МБ)

Поддержи torrent.by
российских рублей
(300 российских рублей это 4$)

Обратная связь rss

End game ©