↑↓torrent.by
Поиск
Логин:  Регистрация
Пароль:

Тайная жизнь / A Hidden Life (2019) BDRip 1080p от селезень | D, P | iTunes

download Скачать торрент-файл   magnet Магнитная ссылка Размер: 11.44 GB Добавлен: 2024-06-28 11:00
Пиры будут получены из сети DHT
Последний сидер был замечен 2024-06-28 11:00
Информация о фильме Название: Тайная жизнь Оригинальное название: A Hidden Life Год выхода: 2019 Жанр: Драма, военный, биография, история Режиссер: Терренс Малик В ролях: Аугуст Диль, Валери Пахнер, Мария Зимон, Карин Нойхаузер, Тобиас Моретти, Ульрих Маттес, Маттиас Шонартс, Франц Роговский, Карл Маркович, Бруно Ганц О фильме: История символа австрийского сопротивления, Франца Егерштеттера, отказавшегося сражаться за нацистов во Второй мировой войне. Когда Франц сталкивается с угрозой казни за измену, несмотря на многочисленные возможности ее избежать, он продолжает отстаивать свои убеждения, опираясь на веру и любовь своей семьи. Страна: США, Великобритания, Германия Студия: Studio Babelsberg, Elizabeth Bay Productions, Medienboard Berlin-Brandenburg Продолжительность: 02:54:23 Перевод(ы): #1: Дублированный | iTunes #2: Профессиональный многоголосый | HDRezka Studio Качество: BDRip 1080p Видео: MPEG-4 AVC, 1920x804, 7918 Kbit/s, 23.976 fps Аудио #01: 48 kHz, AC3, 5.1, 384 Kbps | iTunes | RUS | Аудио #02: 48 kHz, AC3, 5.1, 448 Kbps | HDRezka Studio | RUS | Аудио #03: 48 kHz, AC3, 5.1, 640 Kbps | Оригинал | ENG | Субтитры: Русские (Forced, full), английские
[+] MIGeneral Unique ID : 129883892982737764966979888163127274349 (0x61B6BA564598EACDA50A500934A7AB6D) Complete name : F:A.Hidden.Life.2019.BDRip.1080p.seleZen.mkv Format : Matroska Format version : Version 4 File size : 11.4 GiB Duration : 2 h 54 min Overall bit rate : 9 393 kb/s Movie name : A Hidden Life 2019 from селезень Encoded date : UTC 2020-04-08 21:12:57 Writing application : mkvmerge v41.0.0 ('Smarra') 64-bit Writing library : libebml v1.3.9 + libmatroska v1.5.2 Video ID : 1 Format : AVC Format/Info : Advanced Video Codec Format profile : High@L4.1 Format settings : CABAC / 5 Ref Frames Format settings, CABAC : Yes Format settings, Reference : 5 frames Codec ID : V_MPEG4/ISO/AVC Duration : 2 h 54 min Bit rate : 7 918 kb/s Width : 1 920 pixels Height : 804 pixels Display aspect ratio : 2.40:1 Frame rate mode : Constant Frame rate : 23.976 (24000/1001) FPS Color space : YUV Chroma subsampling : 4:2:0 Bit depth : 8 bits Scan type : Progressive Bits/(Pixel*Frame) : 0.214 Stream size : 9.65 GiB (84%) Title : HDH Writing library : x264 core 142 r2431+42 c69a006 tMod Encoding settings : cabac=1 / ref=5 / deblock=1:-3:-3 / analyse=0x3:0x113 / me=umh / subme=10 / psy=1 / fade_compensate=0.00 / psy_rd=1.00:0.05 / mixed_ref=1 / me_range=48 / chroma_me=1 / trellis=2 / 8x8dct=1 / cqm=0 / deadzone=21,11 / fast_pskip=0 / chroma_qp_offset=-2 / threads=48 / lookahead_threads=6 / sliced_threads=0 / nr=0 / decimate=1 / interlaced=0 / bluray_compat=0 / constrained_intra=0 / fgo=0 / bframes=8 / b_pyramid=2 / b_adapt=2 / b_bias=0 / direct=3 / weightb=1 / open_gop=0 / weightp=2 / keyint=250 / keyint_min=23 / scenecut=40 / intra_refresh=0 / rc_lookahead=40 / rc=crf / mbtree=0 / crf=17.3000 / qcomp=0.60 / qpmin=0:0:0 / qpmax=69:69:69 / qpstep=4 / vbv_maxrate=40000 / vbv_bufsize=30000 / crf_max=0.0 / nal_hrd=none / filler=0 / ip_ratio=1.40 / pb_ratio=1.30 / aq=3:0.80 / aq-sensitivity=10.00 / aq-factor=1.00:1.00:1.00 / aq2=0 / aq3=0 Language : English Default : Yes Forced : No Color range : Limited Matrix coefficients : BT.709 Audio #1 ID : 2 Format : AC-3 Format/Info : Audio Coding 3 Commercial name : Dolby Digital Codec ID : A_AC3 Duration : 2 h 54 min Bit rate mode : Constant Bit rate : 384 kb/s Channel(s) : 6 channels Channel layout : L R C LFE Ls Rs Sampling rate : 48.0 kHz Frame rate : 31.250 FPS (1536 SPF) Compression mode : Lossy Stream size : 479 MiB (4%) Title : Dub Language : Russian Service kind : Complete Main Default : Yes Forced : Yes Audio #2 ID : 3 Format : AC-3 Format/Info : Audio Coding 3 Commercial name : Dolby Digital Codec ID : A_AC3 Duration : 2 h 54 min Bit rate mode : Constant Bit rate : 448 kb/s Channel(s) : 6 channels Channel layout : L R C LFE Ls Rs Sampling rate : 48.0 kHz Frame rate : 31.250 FPS (1536 SPF) Compression mode : Lossy Stream size : 559 MiB (5%) Title : MVO Language : Russian Service kind : Complete Main Default : No Forced : No Audio #3 ID : 4 Format : AC-3 Format/Info : Audio Coding 3 Commercial name : Dolby Digital Codec ID : A_AC3 Duration : 2 h 54 min Bit rate mode : Constant Bit rate : 640 kb/s Channel(s) : 6 channels Channel layout : L R C LFE Ls Rs Sampling rate : 48.0 kHz Frame rate : 31.250 FPS (1536 SPF) Compression mode : Lossy Stream size : 798 MiB (7%) Title : Original Language : English Service kind : Complete Main Default : No Forced : No Text #1 ID : 5 Format : UTF-8 Codec ID : S_TEXT/UTF8 Codec ID/Info : UTF-8 Plain Text Duration : 2 h 50 min Bit rate : 1 b/s Count of elements : 35 Stream size : 2.42 KiB (0%) Title : Forced Language : Russian Default : Yes Forced : Yes Text #2 ID : 6 Format : UTF-8 Codec ID : S_TEXT/UTF8 Codec ID/Info : UTF-8 Plain Text Duration : 2 h 47 min Bit rate : 32 b/s Count of elements : 891 Stream size : 39.3 KiB (0%) Title : Full Language : Russian Default : No Forced : No Text #3 ID : 7 Format : UTF-8 Codec ID : S_TEXT/UTF8 Codec ID/Info : UTF-8 Plain Text Duration : 2 h 52 min Bit rate : 18 b/s Count of elements : 880 Stream size : 22.9 KiB (0%) Language : English Default : No Forced : No Menu 00:00:00.000 : :绗?01 绔? 00:04:54.628 : :绗?02 绔? 00:08:14.828 : :绗?03 绔? 00:15:45.153 : :绗?04 绔? 00:21:19.111 : :绗?05 绔? 00:27:34.319 : :绗?06 绔? 00:32:40.542 : :绗?07 绔? 00:39:45.091 : :绗?08 绔? 00:45:37.985 : :绗?09 绔? 00:53:13.857 : :绗?10 绔? 00:58:10.696 : :绗?11 绔? 01:05:58.079 : :绗?12 绔? 01:10:22.510 : :绗?13 绔? 01:15:46.751 : :绗?14 绔? 01:23:50.275 : :绗?15 绔? 01:28:12.496 : :绗?16 绔? 01:35:25.094 : :绗?17 绔? 01:40:12.423 : :绗?18 绔? 01:47:18.807 : :绗?19 绔? 01:54:59.142 : :绗?20 绔? 02:00:59.210 : :绗?21 绔? 02:06:08.519 : :绗?22 绔? 02:11:11.030 : :绗?23 绔? 02:18:41.647 : :绗?24 绔? 02:23:33.855 : :绗?25 绔? 02:31:11.604 : :绗?26 绔? 02:38:04.225 : :绗?27 绔? 02:48:33.770 : :绗?28 绔?
Релиз от:

Всего файлов в раздаче: 1 
A.Hidden.Life.2019.BDRip.1080p.seleZen.mkv11.44 GB

Похожие раздачи по запросу - Тайная
2024-07-04 magnet Испытание (Тайная любовь. Возвращение) / Сезон: 2 / Серии: 1-16 из 16 [2018, мелодрама, WEBRip-AVC] от Aleksan55 9.02 GB ↑ 0 ↓ 0
2024-06-25 magnet Тайная жизнь [01х01-16 из 40] (2024) WEB-DLRip-AVC от Generalfilm | КПК 1.77 GB ↑ 0 ↓ 0
2024-06-24 magnet Давка-82. Тайная трагедия СССР [01-03 из 03] (2024) WEBRip 1080p 2.03 GB ↑ 0 ↓ 0
2024-05-17 magnet Тайная гробница Клеопатры / Cleopatra's Secret Tomb [01-04 из 04] (2023) WEB-DLRip 720p | P2 6.34 GB ↑ 0 ↓ 0
2024-03-29 magnet Тайная жизнь [01х01-16 из 40] (2024) WEB-DLRip-AVC от Files-x 5.00 GB ↑ 0 ↓ 0
2024-03-26 magnet Тайная жизнь [01х01-10 из 40] (2024) WEB-DL 1080p 7.02 GB ↑ 0 ↓ 0
2024-01-14 magnet Тайная жизнь сказочных человечков [01-04 из 04] (2020) WEBRip 720p 3.04 GB ↑ 0 ↓ 0

Комментарии


Зарегистрируйтесь чтобы добавить комментарий
Торрент клиент
byTorrent - программа для загрузки торрент-файлов.

Скачать byTorrent.exe (1,5 МБ)

Скачать byTorrent.zip (0,6 МБ)

Поддержи torrent.by
российских рублей
(300 российских рублей это 4$)

Обратная связь rss

End game ©