↑↓torrent.by
Поиск
Логин:  Регистрация
Пароль:

Федерер: Последние двенадцать дней / Federer: Twelve Final Days (2024) WEB-DL 1080p от New-Team | P | TVShows

download Скачать торрент-файл   magnet Магнитная ссылка Размер: 5.80 GB Раздают: 0 Качают: 1 Добавлен: 2024-06-28 11:00
Пиры будут получены из сети DHT
Последний сидер был замечен 2024-07-06 12:56
Федерер: Последние двенадцать дней / Federer: Twelve Final Days Год выпуска: 2024 Выпущено: Великобритания / Amazon Prime Video Жанр: документальный, спорт Режиссер: Азиф Кападиа / Asif Kapadia, Джо Сабиа / Joe Sabia В ролях: Роджер Федерер, Рафаэль Надаль, Новак Джокович, Энди Маррей О фильме: Документальный фильм о Роджере Федерере и его последних 12 днях в качестве действующего теннисиста. Сорежиссером выступил прославленный документалист Асиф Кападиа, постановщик «Эми» и «Сенны», за которые он получил по премии BAFTA. Продолжительность: 01:27:45 Перевод: Профессиональный (многоголосый, закадровый) | TVShows Субтитры: английские Раздача от: Автор релиза: JNS82. Формат: MKV Качество: WEB-DL 1080p Видео: MPEG-4 AVC, (2,000), 1920x960, 8429 Кбит/с, 23,976 fps Аудио #1: 48 kHz, AC3 Dolby Digital, 3/2 (L,C,R,l,r) + LFE ch, ~ 384 kbps | RUS | Аудио #2: 48 kHz, E-AC3 Dolby Digital, 3/2 (L,C,R,l,r) + LFE ch, ~ 640 kbps | ENG |
[+] MediaInfoОбщее Уникальный идентификатор : 250117553282822608498286116849977513751 (0xBC2AE377E8DDBE4A5299C37F79B1D717) Полное имя : D:TorrentsFederer.Twelve.Final.Days.2024.1080p_от New-Team.mkv Формат : Matroska Версия формата : Version 4 Размер файла : 5,80 Гбайт Продолжительность : 1 ч. 27 м. Общий поток : 9 455 Кбит/сек Название фильма : Federer.Twelve.Final.Days.2024.1080p_от New-Team Дата кодирования : UTC 2024-06-27 16:24:08 Программа кодирования : mkvmerge v79.0 ('Funeral Pyres') 64-bit Библиотека кодирования : libebml v1.4.4 + libmatroska v1.7.1 Видео Идентификатор : 1 Формат : AVC Формат/Информация : Advanced Video Codec Профиль формата : High@L4 Настройки формата : CABAC / 4 Ref Frames Параметр CABAC формата : Да Параметр RefFrames формата : 4 кадра Идентификатор кодека : V_MPEG4/ISO/AVC Продолжительность : 1 ч. 27 м. Вид битрейта : Постоянный Битрейт : 8 429 Кбит/сек Номинальный битрейт : 10 000 Кбит/сек Ширина : 1 920 пикселей Высота : 960 пикселей Соотношение сторон : 2,000 Режим частоты кадров : Постоянный Частота кадров : 23,976 (24000/1001) кадра/сек Цветовое пространство : YUV Субдискретизация насыщенности : 4:2:0 Битовая глубина : 8 бит Тип развёртки : Прогрессивная Бит/(Пиксели*Кадры) : 0.191 Размер потока : 5,17 Гбайт (89%) Default : Да Forced : Нет Цветовой диапазон : Limited Основные цвета : BT.709 Характеристики трансфера : BT.709 Коэффициенты матрицы : BT.709 Аудио #1 Идентификатор : 2 Формат : AC-3 Формат/Информация : Audio Coding 3 Коммерческое название : Dolby Digital Идентификатор кодека : A_AC3 Продолжительность : 1 ч. 27 м. Вид битрейта : Постоянный Битрейт : 384 Кбит/сек Каналы : 6 каналов Channel layout : L R C LFE Ls Rs Частота : 48,0 КГц Частота кадров : 31,250 кадров/сек (1536 SPF) Метод сжатия : С потерями Размер потока : 241 Мбайт (4%) Заголовок : MVO Язык : Russian Service kind : Complete Main Default : Нет Forced : Нет Аудио #2 Идентификатор : 3 Формат : E-AC-3 Формат/Информация : Enhanced AC-3 Коммерческое название : Dolby Digital Plus Идентификатор кодека : A_EAC3 Продолжительность : 1 ч. 27 м. Вид битрейта : Постоянный Битрейт : 640 Кбит/сек Каналы : 6 каналов Channel layout : L R C LFE Ls Rs Частота : 48,0 КГц Частота кадров : 31,250 кадров/сек (1536 SPF) Метод сжатия : С потерями Размер потока : 402 Мбайт (7%) Заголовок : Original Язык : English Service kind : Complete Main Default : Нет Forced : Нет Текст #1 Идентификатор : 4 Формат : UTF-8 Идентификатор кодека : S_TEXT/UTF8 Идентификатор кодека/Информация : UTF-8 Plain Text Продолжительность : 59 м. 37 с. Битрейт : 3 бит/сек Count of elements : 40 Размер потока : 1,48 Кбайт (0%) Заголовок : English (GB) Язык : English Default : Нет Forced : Нет Текст #2 Идентификатор : 5 Формат : UTF-8 Идентификатор кодека : S_TEXT/UTF8 Идентификатор кодека/Информация : UTF-8 Plain Text Продолжительность : 1 ч. 27 м. Битрейт : 88 бит/сек Count of elements : 1257 Размер потока : 56,9 Кбайт (0%) Заголовок : English (GB) Язык : English Default : Нет Forced : Нет

Всего файлов в раздаче: 1 
Federer.Twelve.Final.Days.2024.1080p_от New-Team.mkv5.80 GB

Похожие раздачи по запросу - Федерер
2024-06-28 magnet Федерер: Последние двенадцать дней / Federer: Twelve Final Days (2024) WEB-DLRip от AR-Team | P | TVShows 1.46 GB ↑ 0 ↓ 0

Комментарии


Зарегистрируйтесь чтобы добавить комментарий
Торрент клиент
byTorrent - программа для загрузки торрент-файлов.

Скачать byTorrent.exe (1,5 МБ)

Скачать byTorrent.zip (0,6 МБ)

Поддержи torrent.by
российских рублей
(300 российских рублей это 4$)

Обратная связь rss

End game ©