↑↓torrent.by
Поиск
Логин:  Регистрация
Пароль:

Шанхайский связной / China strike force / Leui ting jin ging (2000) BDRip 720p от DoMiNo | P2

download Скачать торрент-файл   magnet Магнитная ссылка Размер: 3.25 GB Добавлен: 2024-06-28 11:00
Пиры будут получены из сети DHT
Последний сидер был замечен 2024-06-28 11:00
Информация о фильме Название: Шанхайский связной Оригинальное название: China strike force / Leui ting jin ging Год выхода: 2000 Жанр: Боевик Режиссер: Стэнли Тонг В ролях: Марк Дакаскос, Аарон Квок, Норика Фудзивара, Ван Лихом, Руби Линь, Кэн Ло, Пол Чунь, Лау Сиу-Мин, Дженнифер Лин, Чунь Лай, Джексон Лоу, Ли Хсю Танг, Пол Чэн, Вон Джин, Мэгги Линь, Рой Вонг О фильме: Молодой китайский офицер безопасности, Даррен, приглашен в команду 808, которая борется с контрабандой наркотиков и коррупцией. Он и его напарник Алекс пытаются раскрыть план амбициозного и беспощадного гангстера Тони, чтобы привести в Китай тонну кокаина, купленного в Лос-Анжелесе. Норико, японский офицер Интерпола, сотрудничает с Дарреном для поимки крупных международных торговцев наркотиками и уничтожения наркокартеля. После таинственного убийства, напарники пускаются в безудержную погоню по улицам Шанхая, чтобы поймать преступников и восстановить порядок на улицах города. Страна: Гонконг Студия: China International Entertainment Limited, Golden Harvest Company Ltd. Продолжительность: 01:27:18 Перевод : Профессиональный (двухголосый, закадровый) Субтитры: Русские Файл Формат: Matroska Качество: BDRip 720p Видео: 1280x530 at 25.000 fps, x264@L4.1, ~4242 kbps, 0.250 bpp Аудио 1: AC3, 6 ch, ~448 kbps - | Русский | - Аудио 2: AC3, 6 ch, ~448 kbps - | Aнглийский | Аудио 3: AC3, 2 ch, ~192 kbps - | Aнглийский | Формат субтитров: softsub (SRT) ***Релиз от: -=DoMiNo=-
[+] M/Ix264 : frame I:1022 Avg QP:16.28 size: 63920 x264 : frame P:29619 Avg QP:17.69 size: 34594 x264 : frame B:100306 Avg QP:19.88 size: 16824 x264 : consecutive B-frames: 2.7% 4.2% 11.3% 17.7% 10.9% 34.7% 11.5% 3.9% 1.3% 1.1% 0.5% 0.2% General Format : Matroska Format version : Version 4 File size : 3.25 GiB Duration : 1 h 27 min Overall bit rate : 5 329 kb/s Movie name : Шанхайский связной.(2000).BDRip.x264.720p. Encoded date : UTC 2021-06-19 20:09:41 Writing application : mkvmerge v58.0.0 ('Supper's Ready') 64-bit Writing library : libebml v1.4.2 + libmatroska v1.6.4 Cover : Yes Attachments : Cover.jpg / Cover 2.jpg / cover.png Video ID : 1 Format : AVC Format/Info : Advanced Video Codec Format profile : High@L4.1 Format settings : CABAC / 12 Ref Frames Format settings, CABAC : Yes Format settings, Reference : 12 frames Codec ID : V_MPEG4/ISO/AVC Duration : 1 h 27 min Bit rate : 4 242 kb/s Width : 1 280 pixels Height : 530 pixels Display aspect ratio : 2.40:1 Frame rate mode : Constant Frame rate : 25.000 FPS Color space : YUV Chroma subsampling : 4:2:0 Bit depth : 8 bits Scan type : Progressive Bits/(Pixel*Frame) : 0.250 Stream size : 2.59 GiB (80%) Title : -=DoMiNo=- Writing library : x264 core 164 r3065 ae03d92 Encoding settings : cabac=1 / ref=12 / deblock=1:-2:-2 / analyse=0x3:0x133 / me=umh / subme=10 / psy=1 / psy_rd=1.00:0.20 / mixed_ref=1 / me_range=32 / chroma_me=1 / trellis=2 / 8x8dct=1 / cqm=0 / deadzone=21,11 / fast_pskip=0 / chroma_qp_offset=-3 / threads=24 / lookahead_threads=4 / sliced_threads=0 / nr=0 / decimate=1 / interlaced=0 / bluray_compat=0 / constrained_intra=0 / bframes=11 / b_pyramid=2 / b_adapt=2 / b_bias=0 / direct=1 / weightb=1 / open_gop=0 / weightp=2 / keyint=250 / keyint_min=25 / scenecut=40 / intra_refresh=0 / rc=crf / mbtree=0 / crf=18.0 / qcomp=0.60 / qpmin=0 / qpmax=69 / qpstep=4 / ip_ratio=1.40 / pb_ratio=1.30 / aq=3:0.80 Language : English Default : Yes Forced : No Color range : Limited Color primaries : BT.709 Transfer characteristics : BT.709 Matrix coefficients : BT.709 Audio #1 ID : 2 Format : AC-3 Format/Info : Audio Coding 3 Commercial name : Dolby Digital Codec ID : A_AC3 Duration : 1 h 27 min Bit rate mode : Constant Bit rate : 448 kb/s Channel(s) : 6 channels Channel layout : L R C LFE Ls Rs Sampling rate : 48.0 kHz Frame rate : 31.250 FPS (1536 SPF) Compression mode : Lossy Stream size : 280 MiB (8%) Title : DVO Language : Russian Service kind : Complete Main Default : Yes Forced : Yes Audio #2 ID : 3 Format : AC-3 Format/Info : Audio Coding 3 Commercial name : Dolby Digital Codec ID : A_AC3 Duration : 1 h 27 min Bit rate mode : Constant Bit rate : 448 kb/s Channel(s) : 6 channels Channel layout : L R C LFE Ls Rs Sampling rate : 48.0 kHz Frame rate : 31.250 FPS (1536 SPF) Compression mode : Lossy Stream size : 280 MiB (8%) Language : English Service kind : Complete Main Default : No Forced : No Audio #3 ID : 4 Format : AC-3 Format/Info : Audio Coding 3 Commercial name : Dolby Digital Format settings : Dolby Surround Codec ID : A_AC3 Duration : 1 h 27 min Bit rate mode : Constant Bit rate : 192 kb/s Channel(s) : 2 channels Channel layout : L R Sampling rate : 48.0 kHz Frame rate : 31.250 FPS (1536 SPF) Compression mode : Lossy Stream size : 120 MiB (4%) Language : English Service kind : Complete Main Default : No Forced : No Text ID : 5 Format : UTF-8 Codec ID : S_TEXT/UTF8 Codec ID/Info : UTF-8 Plain Text Duration : 1 h 23 min Bit rate : 63 b/s Count of elements : 801 Stream size : 38.7 KiB (0%) Language : Russian Default : No Forced : No Menu 00:00:00.000 : 00:00:00.000 00:00:00.360 : 00:00:00.360 00:13:18.600 : 00:13:18.600 00:27:03.000 : 00:27:03.000 00:40:42.000 : 00:40:42.000 00:55:02.400 : 00:55:02.400 01:08:41.400 : 01:08:41.400
[+] Скриншоты

Всего файлов в раздаче: 1 
Шанхайский связной.(2000).BDRip.x264.720p.[-=DoMiNo=-].mkv3.25 GB

Комментарии


Зарегистрируйтесь чтобы добавить комментарий
Торрент клиент
byTorrent - программа для загрузки торрент-файлов.

Скачать byTorrent.exe (1,5 МБ)

Скачать byTorrent.zip (0,6 МБ)

Поддержи torrent.by
российских рублей
(300 российских рублей это 4$)

Обратная связь rss

End game ©