↑↓torrent.by
Поиск
Логин:  Регистрация
Пароль:

Ирландская мечта / Irish Wish (2024) WEB-DLRip от DoMiNo & селезень | P2 | ViruseProject

download Скачать торрент-файл   magnet Магнитная ссылка Размер: 1.37 GB Раздают: 0 Качают: 1 Добавлен: 2024-06-28 11:00
Пиры будут получены из сети DHT
Последний сидер был замечен 2024-07-01 17:37
Информация о фильме Название: Ирландская мечта Оригинальное название: Irish Wish Год выхода: 2024 Жанр: фэнтези, мелодрама, комедия Режиссер: Джанин Дамиан В ролях: Линдси Лохан, Эд Спелирс, Александр Влахос, Аеша Карри, Элизабет Тан, Джасинта Мулкахи, Джейн Сеймур, Доун Брэдфилд, Морис Бирн и др. О фильме: Лучшей подруге Мэдди делают предложение, а самой Мэдди предлагают стать подружкой невесты. Все бы ничего, вот только девушка уже давно влюблена в жениха подруги. Однако с разбитым сердцем, решив отказаться от своих чувств, она принимает приглашение на их свадьбу в Ирландии. За пару дней до знаменательной даты Мэдди загадывает простое желание: найти настоящую любовь. На следующий день она неожиданно просыпается уже в роли невесты. Желание сбылось, она выходит замуж за того самого парня! Вот только об этом ли мечтает героиня на самом деле? «Ирландская мечта» (2024) — комедийная мелодрама с Линдси Лохан в главной роли. Страна: Ирландия, США Продолжительность: 01:33:30 Перевод: Профессиональный (двухголосый, закадровый) | ViruseProject Субтитры: Русские (Full), английские - отдельно Файл Формат: AVI Качество: WEB-DLRip Видео: 704x352 at 24.000 fps, XviD 69, ~1706 kbps Аудио: AC3, 2 ch, ~384 kbps - | Русский | Формат субтитров: softsub (SRT) ***Рип от: -=DoMiNo=-
[+] M/IGeneral Complete name : S:Irish Wish.2024.DVO.WEB-DLRip.seleZenIrish Wish.2024.DVO.WEB-DLRip.seleZen.avi Format : AVI Format/Info : Audio Video Interleave Format settings : BitmapInfoHeader / WaveFormatEx File size : 1.37 GiB Duration : 1 h 33 min Overall bit rate : 2 100 kb/s Frame rate : 24.000 FPS Movie name : Irish Wish.2024.DVO.WEB-DLRip.seleZen Writing application : VirtualDubModRus 1.5.10.2 (build 2542/release) Writing library : VirtualDubMod build 2542/release Copyright : -=DoMiNo=- Video ID : 0 Format : MPEG-4 Visual Format profile : Advanced Simple@L5 Format settings : BVOP1 / Custom Matrix Format settings, BVOP : 1 Format settings, QPel : No Format settings, GMC : No warppoints Format settings, Matrix : Custom Codec ID : XVID Codec ID/Hint : XviD Duration : 1 h 33 min Bit rate : 1 706 kb/s Width : 704 pixels Height : 352 pixels Display aspect ratio : 2.000 Frame rate : 24.000 FPS Color space : YUV Chroma subsampling : 4:2:0 Bit depth : 8 bits Scan type : Progressive Compression mode : Lossy Bits/(Pixel*Frame) : 0.287 Stream size : 1.11 GiB (81%) Writing library : XviD 69 Audio ID : 1 Format : AC-3 Format/Info : Audio Coding 3 Commercial name : Dolby Digital Codec ID : 2000 Duration : 1 h 33 min Bit rate mode : Constant Bit rate : 384 kb/s Channel(s) : 2 channels Channel layout : L R Sampling rate : 48.0 kHz Frame rate : 31.250 FPS (1536 SPF) Compression mode : Lossy Stream size : 257 MiB (18%) Alignment : Split across interleaves Interleave, duration : 42 ms (1.00 video frame) Interleave, preload duratio : 500 ms Service kind : Complete Main Dialog Normalization : -31 dB dialnorm_Average : -31 dB dialnorm_Minimum : -31 dB dialnorm_Maximum : -31 dB
Релиз: Присоединяйся к: Кликай на баннеры.

Всего файлов в раздаче: 3 
Irish Wish.2024.DVO.WEB-DLRip.seleZen.[eng].srt114.08 kB
Irish Wish.2024.DVO.WEB-DLRip.seleZen.[rus].srt118.63 kB
Irish Wish.2024.DVO.WEB-DLRip.seleZen.avi1.37 GB

Похожие раздачи по запросу - Ирландская
2024-06-28 magnet Ирландская мечта / Irish Wish (2024) WEB-DL 1080p | ViruseProject 3.94 GB ↑ 0 ↓ 0

Комментарии


Зарегистрируйтесь чтобы добавить комментарий
Торрент клиент
byTorrent - программа для загрузки торрент-файлов.

Скачать byTorrent.exe (1,5 МБ)

Скачать byTorrent.zip (0,6 МБ)

Поддержи torrent.by
российских рублей
(300 российских рублей это 4$)

Обратная связь rss

End game ©