↑↓torrent.by
Поиск
Логин:  Регистрация
Пароль:

Ю-571 / U-571 (2000) BDRip от New-Team | D, A

download Скачать торрент-файл   magnet Магнитная ссылка Размер: 1.09 GB Добавлен: 2024-06-28 17:00
Пиры будут получены из сети DHT
Последний сидер был замечен 2024-06-29 20:55
Страна: Франция, США Производство: Canal Plus Image International, Dino De Laurentiis Productions, Universal Pictures Жанр: боевик, триллер, драма, военный Год выпуска: 2000 Продолжительность: 01:55:59 Перевод: Профессиональный (полное дублирование) Мосфильм Оригинальная аудиодорожка: нет Cубтитры: нет Режиссер: Джонатан Мостоу / Jonathan Mostow В ролях: Мэттью МакКонахи, Билл Пэкстон, Харви Кейтель, Джон Бон Джови, Дэвид Кит, Томас Кречман, Джейк Уэбер, Джек Ноузуорти, Том Гайри, Уилл Эстес... Подробнее об актерах Роли дублировали: Владимир Антоник, Олег Куценко, Виктор Петров, Александр Рахленко, Александр Груздев... Описание: 1942 год. Немецкие подводные лодки хозяйничают в Атлантике. Радиоперехваты не дают союзникам ничего: сообщения противника не поддаются расшифровке. И тогда американские моряки получают секретное задание: захватить вражескую субмарину U-571 и находящуюся на ее борту шифровальную машину «Энигма». Захватить… и вернуться обратно! Исходник: BDRemux 1080p Тип релиза: BDRip Контейнер: AVI Видео: 720x400 (16:9), 24,000 кадра/сек, XviD 73 ~ 1143 кбит/сек, 0.165 бит/пиксель Аудио: 48 кГц, Dolby Digital AC3 2.0, 192 кбит/сек Раздача от:
[+] MediaInfo Общее Полное имя : Ю-571.2000.BDRip__by_AVP_Studio.avi Формат : AVI Формат/Информация : Audio Video Interleave Настройки формата : BitmapInfoHeader / WaveFormatEx Размер файла : 1,09 Гбайт Продолжительность : 1 ч. 55 мин. Общий битрейт : 1 344 Кбит/сек Частота кадров : 24,000 кадра/сек Программа кодирования : VirtualDubMod 1.5.10.3 | www.virtualdub-fr.org || (build 2550/release) Библиотека кодирования : VirtualDubMod build 2550/release Видео Идентификатор : 0 Формат : MPEG-4 Visual Профиль формата : Advanced Simple@L5 Настройки формата : BVOP1 / Custom Matrix Параметр BVOP формата : 1 Параметр QPel формата : Нет Параметр GMC формата : Без точки перехода Параметр Matrix формата : Выборочная Идентификатор кодека : XVID Идентификатор кодека/Подсказка : XviD Продолжительность : 1 ч. 55 мин. Битрейт : 1 143 Кбит/сек Ширина : 720 пикселей Высота : 400 пикселей Соотношение сторон дисплея : 16:9 Частота кадров : 24,000 кадра/сек Цветовое пространство : YUV Цветовая субдискретизация : 4:2:0 Битовая глубина : 8 бит Тип развёртки : Прогрессивная Метод сжатия : С потерями Бит/(Пиксели*Кадры) : 0.165 Размер потока : 948 Мбайт (85%) Библиотека кодирования : XviD 73 Аудио Идентификатор : 1 Формат : AC-3 Формат/Информация : Audio Coding 3 Коммерческое название : Dolby Digital Идентификатор кодека : 2000 Продолжительность : 1 ч. 55 мин. Вид битрейта : Постоянный Битрейт : 192 Кбит/сек Канал(-ы) : 2 канала Расположение каналов : L R Частота дискретизации : 48,0 КГц Частота кадров : 31,250 кадров/сек (1536 SPF) Метод сжатия : С потерями Размер потока : 159 Мбайт (14%) Выравнивание : Разделение по промежуткам Чередование, продолжительность : 42 мс. (1,00 видеокадр) Чередование, продолжительность пред.загр : 500 мс Нормализация звука речи : -31 dB dialnorm_Average : -31 dB dialnorm_Minimum : -31 dB dialnorm_Maximum : -31 dB
[+] Скриншоты

Всего файлов в раздаче: 1 
Ю-571.2000.BDRip_[New-team]_by_AVP_Studio.avi1.09 GB

Похожие раздачи по запросу - Ю-571
2024-06-28 magnet Ю-571 / U-571 (2000) BDRip 720p от New-Team | D, A 5.83 GB ↑ 0 ↓ 0
2024-06-28 magnet Ю-571 / U-571 (2000) BDRip-AVC от New-Team | D, A 2.59 GB ↑ 0 ↓ 0
2023-11-26 magnet Ю-571 / U-571 (2000) BDRip 720p от DoMiNo & селезень | D | NOR Transfer | Open Matte 6.95 GB ↑ 0 ↓ 0

Комментарии


Зарегистрируйтесь чтобы добавить комментарий
Торрент клиент
byTorrent - программа для загрузки торрент-файлов.

Скачать byTorrent.exe (1,5 МБ)

Скачать byTorrent.zip (0,6 МБ)

Поддержи torrent.by
российских рублей
(300 российских рублей это 4$)

Обратная связь rss

End game ©