↑↓torrent.by
Поиск
Логин:  Регистрация
Пароль:

Неподдающиеся (1959) WEB-DLRip от New-Team | Цветная версия

download Скачать торрент-файл   magnet Магнитная ссылка Размер: 1.09 GB Добавлен: 2024-06-28 17:00
Пиры будут получены из сети DHT
Последний сидер был замечен 2024-07-02 22:03
Цветная верcия, полная реставрация изображения и звука Страна: СССР Производство: Мосфильм Жанр: комедия Год выпуска: 1959 Продолжительность: 01:18:46 Перевод: не требуется Оригинальная аудиодорожка: русский Cубтитры: нет Режиссер: Юрий Чулюкин В ролях: Надежда Румянцева, Юрий Никулин, Юрий Белов, Алексей Кожевников, Владимир Козлов, Вера Карпова, Светлана Харитонова, В. Егоров, Константин Нассонов, И. Каширин, Анатолий Кузнецов, Сергей Филиппов, Лилия Гриценко... Подробнее об актерах Описание: Есть на заводе два паренька, два друга, из-за которых показатели молодёжной бригады вечно страдают. Уже было твёрдо решено уволить Анатолия Грачкина и его дружка Виктора Громобоева, как ребят взяла на поруки Надя Берестова, маленькая смешная девчонка, общая любимица. На собрании она пожалела друзей, а комсомольцы, не растерявшись, сразу «записали» ей поручение. Поначалу Надя взялась за него с неохотой и опаской, но постепенно это поручение становится самым главным в жизни. Девушка настолько втягивается в дело перевоспитания, что ради своих подшефных забывает собственные привязанности… Исходник: WEB-DL 1080p Тип релиза: WEB-DLRip Контейнер: AVI Видео: 720x528 (4:3), 24,000 кадров/сек, XviD 73 ~ 1779 кбит/сек, 0.195 бит/пиксель Аудио: 48 кГц, Dolby Digital AC3 2.0, 192 кбит/сек Раздача от:
[+] MediaInfo Общее Полное имя : Неподдающиеся.1959.WEB-DLRip__by_AVP_Studio.avi Формат : AVI Формат/Информация : Audio Video Interleave Настройки формата : BitmapInfoHeader / WaveFormatEx Размер файла : 1,09 Гбайт Продолжительность : 1 ч. 18 мин. Общий битрейт : 1 981 Кбит/сек Частота кадров : 24,000 кадра/сек Программа кодирования : VirtualDubMod 1.5.10.3 | www.virtualdub-fr.org || (build 2550/release) Библиотека кодирования : VirtualDubMod build 2550/release Видео Идентификатор : 0 Формат : MPEG-4 Visual Профиль формата : Advanced Simple@L5 Настройки формата : BVOP1 / Custom Matrix Параметр BVOP формата : 1 Параметр QPel формата : Нет Параметр GMC формата : Без точки перехода Параметр Matrix формата : Выборочная Идентификатор кодека : XVID Идентификатор кодека/Подсказка : XviD Продолжительность : 1 ч. 18 мин. Битрейт : 1 779 Кбит/сек Ширина : 720 пикселей Высота : 528 пикселей Соотношение сторон дисплея : 4:3 Частота кадров : 24,000 кадра/сек Цветовое пространство : YUV Цветовая субдискретизация : 4:2:0 Битовая глубина : 8 бит Тип развёртки : Прогрессивная Метод сжатия : С потерями Бит/(Пиксели*Кадры) : 0.195 Размер потока : 1 003 Мбайт (90%) Библиотека кодирования : XviD 73 Аудио Идентификатор : 1 Формат : AC-3 Формат/Информация : Audio Coding 3 Коммерческое название : Dolby Digital Идентификатор кодека : 2000 Продолжительность : 1 ч. 18 мин. Вид битрейта : Постоянный Битрейт : 192 Кбит/сек Канал(-ы) : 2 канала Расположение каналов : L R Частота дискретизации : 48,0 КГц Частота кадров : 31,250 кадров/сек (1536 SPF) Метод сжатия : С потерями Размер потока : 108 Мбайт (10%) Выравнивание : Разделение по промежуткам Чередование, продолжительность : 42 мс. (1,00 видеокадр) Чередование, продолжительность пред.загр : 500 мс. Нормализация звука речи : -31 dB dialnorm_Average : -31 dB dialnorm_Minimum : -31 dB dialnorm_Maximum : -31 dB
[+] Скриншоты

Всего файлов в раздаче: 1 
Неподдающиеся.1959.WEB-DLRip_[New-team]_by_AVP_Studio.avi1.09 GB

Похожие раздачи по запросу - Неподдающиеся
2024-06-22 magnet Неподдающиеся (1959) WEB-DLRip 720p от New-Team В цвете 1.46 GB ↑ 0 ↓ 0
2024-06-18 magnet Неподдающиеся (1959) WEB-DLRip 1080p 5.09 GB ↑ 0 ↓ 0

Комментарии


Зарегистрируйтесь чтобы добавить комментарий
Торрент клиент
byTorrent - программа для загрузки торрент-файлов.

Скачать byTorrent.exe (1,5 МБ)

Скачать byTorrent.zip (0,6 МБ)

Поддержи torrent.by
российских рублей
(300 российских рублей это 4$)

Обратная связь rss

End game ©