↑↓torrent.by
Поиск
Логин:  Регистрация
Пароль:

Ю-571 / U-571 (2000) BDRip-AVC от New-Team | D, A

download Скачать торрент-файл   magnet Магнитная ссылка Размер: 2.59 GB Добавлен: 2024-06-28 17:00
Пиры будут получены из сети DHT
Последний сидер был замечен 2024-06-30 17:28
Страна: Франция, США Производство: Canal Plus Image International, Dino De Laurentiis Productions, Universal Pictures Жанр: боевик, триллер, драма, военный Год выпуска: 2000 Продолжительность: 01:55:59 Перевод: Профессиональный (полное дублирование) Мосфильм Оригинальная аудиодорожка: английский Cубтитры: русский Режиссер: Джонатан Мостоу / Jonathan Mostow В ролях: Мэттью МакКонахи, Билл Пэкстон, Харви Кейтель, Джон Бон Джови, Дэвид Кит, Томас Кречман, Джейк Уэбер, Джек Ноузуорти, Том Гайри, Уилл Эстес... Подробнее об актерах Роли дублировали: Владимир Антоник, Олег Куценко, Виктор Петров, Александр Рахленко, Александр Груздев... Описание: 1942 год. Немецкие подводные лодки хозяйничают в Атлантике. Радиоперехваты не дают союзникам ничего: сообщения противника не поддаются расшифровке. И тогда американские моряки получают секретное задание: захватить вражескую субмарину U-571 и находящуюся на ее борту шифровальную машину «Энигма». Захватить… и вернуться обратно! Исходник: BDRemux 1080p Тип релиза: BDRip-AVC Контейнер: MKV Видео: 1024x576 (16:9), 24,000 кадра/сек, x264 core 138 r2356 ~ 2304 кбит/сек, 0.163 бит/пиксель Аудио: 48 кГц, Dolby Digital AC3 5.1, 448 кбит/сек DUB Мосфильм Аудио: 48 кГц, Dolby Digital AC3 5.1, 448 кбит/сек Английский Субтитры: SoftSub (srt) Оригинальная навигация по главам: есть Раздача от:
[+] MediaInfo Общее Полное имя : Ю-571.2000.BDRip-AVC__by_AVP_Studio.mkv Формат : Matroska Версия формата : Version 4 Размер файла : 2,59 Гбайт Продолжительность : 1 ч. 55 мин. Общий битрейт : 3 200 Кбит/сек Частота кадров : 24,000 кадра/сек Дата кодирования : 2024-06-24 18:01:36 UTC Программа кодирования : mkvmerge v85.0 ('Shame For You') 64-bit Библиотека кодирования : libebml v1.4.5 + libmatroska v1.7.1 Видео Идентификатор : 1 Формат : AVC Формат/Информация : Advanced Video Codec Профиль формата : High@L4.1 Настройки формата : CABAC / 8 Ref Frames Параметр CABAC формата : Да Параметр RefFrames формата : 8 кадров Идентификатор кодека : V_MPEG4/ISO/AVC Продолжительность : 1 ч. 55 мин. Битрейт : 2 304 Кбит/сек Ширина : 1 024 пикселя Высота : 576 пикселей Соотношение сторон дисплея : 16:9 Режим частоты кадров : Постоянный Частота кадров : 24,000 кадра/сек Цветовое пространство : YUV Цветовая субдискретизация : 4:2:0 Битовая глубина : 8 бит Тип развёртки : Прогрессивная Бит/(Пиксели*Кадры) : 0.163 Размер потока : 1,87 Гбайт (72%) Заголовок : Исходник BDRemux 1080p Библиотека кодирования : x264 core 138 r2356 a1d3d17 Параметры библиотеки кодирования : cabac=1 / ref=8 / deblock=1:-3:-2 / analyse=0x3:0x113 / me=umh / subme=10 / psy=1 / psy_rd=1.00:0.05 / mixed_ref=1 / me_range=32 / chroma_me=1 / trellis=2 / 8x8dct=1 / cqm=0 / deadzone=21,11 / fast_pskip=0 / chroma_qp_offset=-3 / threads=6 / lookahead_threads=1 / sliced_threads=0 / nr=0 / decimate=0 / interlaced=0 / bluray_compat=0 / constrained_intra=0 / bframes=8 / b_pyramid=2 / b_adapt=2 / b_bias=0 / direct=3 / weightb=1 / open_gop=0 / weightp=2 / keyint=240 / keyint_min=24 / scenecut=40 / intra_refresh=0 / rc_lookahead=40 / rc=2pass / mbtree=1 / bitrate=2304 / ratetol=1.0 / qcomp=0.60 / qpmin=0 / qpmax=69 / qpstep=4 / cplxblur=20.0 / qblur=0.5 / ip_ratio=1.40 / aq=1:1.00 Язык : Английский По умолчанию : Да Принудительно : Нет Аудио #1 Идентификатор : 2 Формат : AC-3 Формат/Информация : Audio Coding 3 Коммерческое название : Dolby Digital Идентификатор кодека : A_AC3 Продолжительность : 1 ч. 55 мин. Вид битрейта : Постоянный Битрейт : 448 Кбит/сек Канал(-ы) : 6 каналов Расположение каналов : L R C LFE Ls Rs Частота дискретизации : 48,0 КГц Частота кадров : 31,250 кадров/сек (1536 SPF) Метод сжатия : С потерями Размер потока : 372 Мбайт (14%) Заголовок : Профессиональный (дублированный) Мосфильм Язык : Русский По умолчанию : Да Принудительно : Нет Нормализация звука речи : -31 dB cmixlev : -3.0 dB surmixlev : -3 dB dialnorm_Average : -31 dB dialnorm_Minimum : -31 dB dialnorm_Maximum : -31 dB Аудио #2 Идентификатор : 3 Формат : AC-3 Формат/Информация : Audio Coding 3 Коммерческое название : Dolby Digital Идентификатор кодека : A_AC3 Продолжительность : 1 ч. 55 мин. Вид битрейта : Постоянный Битрейт : 448 Кбит/сек Канал(-ы) : 6 каналов Расположение каналов : L R C LFE Ls Rs Частота дискретизации : 48,0 КГц Частота кадров : 31,250 кадров/сек (1536 SPF) Метод сжатия : С потерями Размер потока : 372 Мбайт (14%) Заголовок : Оригинал Язык : Английский По умолчанию : Нет Принудительно : Нет Нормализация звука речи : -31 dB cmixlev : -3.0 dB surmixlev : -3 dB dialnorm_Average : -31 dB dialnorm_Minimum : -31 dB dialnorm_Maximum : -31 dB Текст #1 Идентификатор : 4 Формат : UTF-8 Идентификатор кодека : S_TEXT/UTF8 Идентификатор кодека/Информация : UTF-8 Plain Text Продолжительность : 1 ч. 49 мин. Битрейт : 9 бит/сек Частота кадров : 0,024 кадр/сек Число элементов : 160 Размер потока : 7,81 КиБ (0%) Заголовок : Forced SRT Язык : Русский По умолчанию : Нет Принудительно : Нет Текст #2 Идентификатор : 5 Формат : UTF-8 Идентификатор кодека : S_TEXT/UTF8 Идентификатор кодека/Информация : UTF-8 Plain Text Продолжительность : 1 ч. 47 мин. Битрейт : 69 бит/сек Частота кадров : 0,126 кадр/сек Число элементов : 811 Размер потока : 54,6 КиБ (0%) Заголовок : SRT Язык : Русский По умолчанию : Нет Принудительно : Нет Меню 00:00:00.000 : en:Dead in the Water 00:08:42.767 : en:The Lost Command 00:12:59.100 : en:A Special Op 00:15:57.141 : en:The Trojan Horse 00:29:45.058 : en:To Be a Captain 00:33:15.849 : en:Battle Stations 00:36:03.640 : en:The Boarding Party 00:39:55.098 : en:Siege 00:46:49.681 : en:The Floating Target 00:56:29.889 : en:Survivors 00:58:55.847 : en:Heading for England 01:03:03.430 : en:A Real Sea Captain 01:06:36.180 : en:The Battle Below 01:10:02.138 : en:Face-to-Face 01:16:46.554 : en:Depth-Charged 01:21:31.471 : en:160 Meters 01:29:38.095 : en:200 Meters 01:35:31.428 : en:Trigger's Job 01:41:44.636 : en:Fire or Die! 01:48:31.969 : en:Epilogue/End Credits
[+] Скриншоты

Всего файлов в раздаче: 1 
Ю-571.2000.BDRip-AVC_[New-team]_by_AVP_Studio.mkv2.59 GB

Похожие раздачи по запросу - Ю-571
2024-06-28 magnet Ю-571 / U-571 (2000) BDRip 720p от New-Team | D, A 5.83 GB ↑ 0 ↓ 0
2024-06-28 magnet Ю-571 / U-571 (2000) BDRip от New-Team | D, A 1.09 GB ↑ 0 ↓ 0
2023-11-26 magnet Ю-571 / U-571 (2000) BDRip 720p от DoMiNo & селезень | D | NOR Transfer | Open Matte 6.95 GB ↑ 0 ↓ 0

Комментарии


Зарегистрируйтесь чтобы добавить комментарий
Торрент клиент
byTorrent - программа для загрузки торрент-файлов.

Скачать byTorrent.exe (1,5 МБ)

Скачать byTorrent.zip (0,6 МБ)

Поддержи torrent.by
российских рублей
(300 российских рублей это 4$)

Обратная связь rss

End game ©