↑↓torrent.by
Поиск
Логин:  Регистрация
Пароль:

Семейное дело / A Family Affair (2024) WEB-DLRip от New-Team | D

download Скачать торрент-файл   magnet Магнитная ссылка Размер: 1.46 GB Добавлен: 2024-06-28 17:00
Пиры будут получены из сети DHT
Последний сидер был замечен 2024-07-12 23:12
Семейное дело / A Family Affair Год выпуска: 2024 Выпущено: США / Roth/Kirschenbaum Films Жанр: мелодрама, комедия Режиссер: Ричард ЛаГравенес / Richard LaGravenese В ролях: Джои Кинг, Зак Эфрон, Николь Кидман, Кэти Бейтс, Лайза Коши, Шерри Кола, Джиссетт Валентайн, Оливия Маклин, Бет Би Паркер, Аньес Маясари О фильме: Зара работает на суперпопулярного киноактера Криса Коула — нарцисса и требовательного ловеласа. Не в силах больше терпеть его выходки, девушка увольняется одним днем, а вскоре обнаруживает, что Коул встречается… с ее собственной матерью. Продолжительность: 01:53:32 Перевод: Профессиональный (полное дублирование) | Videofilm Ltd. Субтитры: Русские (forced, 2xfull), английские (SDH), Раздача от: Автор релиза: JNS82. Формат: AVI Качество: WEB-DLRip Видео: 704x384 (1.85:1), 24,000 fps, XviD MPEG-4 ~ 1388 kbps avg, 0.214 bit/pixel, build 74 Аудио: 48 kHz, AC3 Dolby Digital, 3/2 (L,C,R,l,r) + LFE ch, ~ 448 kbps | RUS |
[+] MediaInfoОбщее Полное имя : D:TorrentsA.Family.Affair.2024.WEB-DLRip_от New-TeamA.Family.Affair.2024.WEB-DLRip_от New-Team.avi Формат : AVI Формат/Информация : Audio Video Interleave Размер файла : 1,46 Гбайт Продолжительность : 1 ч. 53 м. Общий поток : 1 846 Кбит/сек Программа кодирования : VirtualDubMod 1.5.10.2 (build 2540/release) Библиотека кодирования : VirtualDubMod build 2540/release Видео Идентификатор : 0 Формат : MPEG-4 Visual Профиль формата : Advanced Simple@L5 Настройки формата : BVOP1 / Custom Matrix Параметр BVOP формата : 1 Параметр QPel формата : Нет Параметр GMC формата : Без точки перехода Параметр матрицы формата : Выборочная Идентификатор кодека : XVID Идентификатор кодека/Подсказка : XviD Продолжительность : 1 ч. 53 м. Битрейт : 1 388 Кбит/сек Ширина : 704 пикселя Высота : 384 пикселя Соотношение сторон : 1,85:1 Частота кадров : 24,000 кадра/сек Цветовое пространство : YUV Субдискретизация насыщенности : 4:2:0 Битовая глубина : 8 бит Тип развёртки : Прогрессивная Метод сжатия : С потерями Бит/(Пиксели*Кадры) : 0.214 Размер потока : 1,10 Гбайт (75%) Библиотека кодирования : XviD 74 Аудио Идентификатор : 1 Формат : AC-3 Формат/Информация : Audio Coding 3 Коммерческое название : Dolby Digital Идентификатор кодека : 2000 Продолжительность : 1 ч. 53 м. Вид битрейта : Постоянный Битрейт : 448 Кбит/сек Каналы : 6 каналов Channel layout : L R C LFE Ls Rs Частота : 48,0 КГц Частота кадров : 31,250 кадров/сек (1536 SPF) Метод сжатия : С потерями Размер потока : 364 Мбайт (24%) Выравнивание : Разделение по промежуткам Продолжительность промежутка : 42 мс. (1,00 видеокадр) Время предзагрузки промежутка : 500 мс. Service kind : Complete Main

Всего файлов в раздаче: 5 
A.Family.Affair.2024.WEB-DLRip_от New-Team.avi1.46 GB
A.Family.Affair.2024.WEB-DLRip_от New-Team_SDH_[eng].srt154.02 kB
A.Family.Affair.2024.WEB-DLRip_от New-Team_forced_[rus].srt4.12 kB
A.Family.Affair.2024.WEB-DLRip_от New-Team_full.V.1_[rus].srt174.22 kB
A.Family.Affair.2024.WEB-DLRip_от New-Team_full.V.2_[rus].srt167.15 kB

Похожие раздачи по запросу - Семейное
2024-06-29 magnet Семейное дело / A Family Affair (2024) WEB-DLRip от DoMiNo & селезень | D | Videofilm Int. 1.46 GB ↑ 0 ↓ 0
2024-06-28 magnet Семейное дело / A Family Affair (2024) WEB-DL 1080p | D 5.42 GB ↑ 0 ↓ 0
2024-06-28 magnet Семейное дело / A Family Affair (2024) WEB-DLRip 720p от DoMiNo & селезень | D | Videofilm Int. 2.07 GB ↑ 0 ↓ 0

Комментарии


Зарегистрируйтесь чтобы добавить комментарий
Торрент клиент
byTorrent - программа для загрузки торрент-файлов.

Скачать byTorrent.exe (1,5 МБ)

Скачать byTorrent.zip (0,6 МБ)

Поддержи torrent.by
российских рублей
(300 российских рублей это 4$)

Обратная связь rss

End game ©