↑↓torrent.by
Поиск
Логин:  Регистрация
Пароль:

Фуриоса: Хроники Безумного Макса / Furiosa: A Mad Max Saga (2024) WEB-DLRip от New-Team | D

download Скачать торрент-файл   magnet Магнитная ссылка Размер: 1.46 GB Добавлен: 2024-06-28 17:00
Пиры будут получены из сети DHT
Последний сидер был замечен 2024-07-16 20:05
Фуриоса: Хроники Безумного Макса / Furiosa: A Mad Max Saga Год выпуска: 2024 Выпущено: Австралия, США / Warner Bros., Kennedy Miller Mitchell Жанр: фантастика, боевик Режиссер: Джордж Миллер / George Miller В ролях: Аня Тейлор-Джой, Крис Хемсворт, Том Бёрк, Алила Браун, Джордж Шевцов, Лейчи Халм, Джон Ховард, Энгус Сэмпсон, Чарли Фрейзер, Эльза Патаки О фильме: История похищения юной воительницы Фуриосы из Зелёных Земель, в результате которого девушка попадает в руки орды байкеров под предводительством Военачальника Дементуса. Пробираясь через Пустошь, они натыкаются на Цитадель, которой управляет Бессмертный Джо, и пока два тирана борются за господство, Фуриосе предстоит пережить множество испытаний, пытаясь найти путь домой. Продолжительность: 02:28:11 Перевод: Профессиональный (полное дублирование) | Movie Dubbing / Bravo Records Georgia Субтитры: Русские (forced, 2xfull), английские Раздача от: Автор релиза: JNS82. Формат: AVI Качество: WEB-DLRip Видео: 720x304 (2.35:1), 23.976 fps, XviD MPEG-4 ~ 1212 kbps avg, 0.231 bit/pixel, build 73 Аудио: 48 kHz, AC3 Dolby Digital, 2/0 (L,R) ch, ~ 192 kbps | RUS |
[+] MediaInfoОбщее Полное имя : D:TorrentsFuriosa.A.Mad.Max.Saga.2024.WEB-DLRip_от New-TeamFuriosa.A.Mad.Max.Saga.2024.WEB-DLRip_от New-Team.avi Формат : AVI Формат/Информация : Audio Video Interleave Размер файла : 1,46 Гбайт Продолжительность : 2 ч. 28 м. Общий поток : 1 414 Кбит/сек Программа кодирования : VirtualDubMod 1.5.10.2 (build 2540/release) Библиотека кодирования : VirtualDubMod build 2540/release Видео Идентификатор : 0 Формат : MPEG-4 Visual Профиль формата : Advanced Simple@L5 Настройки формата : BVOP1 / Custom Matrix Параметр BVOP формата : 1 Параметр QPel формата : Нет Параметр GMC формата : Без точки перехода Параметр матрицы формата : Выборочная Идентификатор кодека : XVID Идентификатор кодека/Подсказка : XviD Продолжительность : 2 ч. 28 м. Битрейт : 1 212 Кбит/сек Ширина : 720 пикселей Высота : 304 пикселя Соотношение сторон : 2,35:1 Частота кадров : 23,976 (24000/1001) кадра/сек Цветовое пространство : YUV Субдискретизация насыщенности : 4:2:0 Битовая глубина : 8 бит Тип развёртки : Прогрессивная Метод сжатия : С потерями Бит/(Пиксели*Кадры) : 0.231 Размер потока : 1,25 Гбайт (86%) Библиотека кодирования : XviD 73 Аудио Идентификатор : 1 Формат : AC-3 Формат/Информация : Audio Coding 3 Коммерческое название : Dolby Digital Идентификатор кодека : 2000 Продолжительность : 2 ч. 28 м. Вид битрейта : Постоянный Битрейт : 192 Кбит/сек Каналы : 2 канала Channel layout : L R Частота : 48,0 КГц Частота кадров : 31,250 кадров/сек (1536 SPF) Метод сжатия : С потерями Размер потока : 204 Мбайт (14%) Выравнивание : Разделение по промежуткам Продолжительность промежутка : 42 мс. (1,00 видеокадр) Время предзагрузки промежутка : 500 мс. Service kind : Complete Main

Всего файлов в раздаче: 5 
Furiosa.A.Mad.Max.Saga.2024.WEB-DLRip_от New-Team.avi1.46 GB
Furiosa.A.Mad.Max.Saga.2024.WEB-DLRip_от New-Team_[eng].srt69.11 kB
Furiosa.A.Mad.Max.Saga.2024.WEB-DLRip_от New-Team_forced_[rus].srt960.00 B
Furiosa.A.Mad.Max.Saga.2024.WEB-DLRip_от New-Team_full.V.1_[rus].srt82.17 kB
Furiosa.A.Mad.Max.Saga.2024.WEB-DLRip_от New-Team_full.V.2_[rus].srt87.14 kB

Похожие раздачи по запросу - Фуриоса
2024-07-15 magnet Фуриоса: Хроники Безумного Макса / Фуріоза: Шалений Макс. Сага / Furiosa: A Mad Max Saga (2024) WEB-DL-HEVC 2160p | 4K | SDR | D | UKR 26.45 GB ↑ 0 ↓ 0
2024-07-06 magnet Фуриоса: Хроники Безумного Макса / Furiosa: A Mad Max Saga (2024) UHD WEB-DL 2160p | 4K | HDR | Dolby Vision Profile 8 | D, P, A 31.04 GB ↑ 3 ↓ 4
2024-07-03 magnet Фуриоса: Хроники Безумного Макса / Furiosa: A Mad Max Saga (2024) WEB-DLRip-AVC | КПК | D, P | Red Head Sound, HDrezka Studio 805.80 MB ↑ 0 ↓ 1
2024-07-03 magnet Фуриоса: Хроники Безумного Макса / Furiosa: A Mad Max Saga [2024, фантастика, боевик, WEB-DLRip-AVC] Dub 2.18 GB ↑ 0 ↓ 1
2024-07-01 magnet Фуриоса: Хроники Безумного Макса / Furiosa: A Mad Max Saga (2024) WEB-DLRip 1080p | D, P, A | Movie Dubbing, RHS, LostFilm, HDrezka, Jaskier, TVShows, Яроцкий 22.53 GB ↑ 1 ↓ 2
2024-06-30 magnet Фуриоса: Хроники Безумного Макса / Furiosa: A Mad Max Saga (2024) WEB-DLRip от DoMiNo & селезень | D | Red Head Sound 1.47 GB ↑ 0 ↓ 0
2024-06-30 magnet Фуриоса: Хроники Безумного Макса / Furiosa: A Mad Max Saga (2024) UHD WEB-DL HEVC 2160p | 4K | Dolby Vision TV | D | Movie Dubbing, Red Head Sound 27.00 GB ↑ 0 ↓ 3

Комментарии


Зарегистрируйтесь чтобы добавить комментарий
Торрент клиент
byTorrent - программа для загрузки торрент-файлов.

Скачать byTorrent.exe (1,5 МБ)

Скачать byTorrent.zip (0,6 МБ)

Поддержи torrent.by
российских рублей
(300 российских рублей это 4$)

Обратная связь rss

End game ©