↑↓torrent.by
Поиск
Логин:  Регистрация
Пароль:

Фуриоса: Хроники Безумного Макса / Furiosa: A Mad Max Saga (2024) WEB-DL 1080p | D, P | Movie Dubbing, HDrezka Studio, Jaskier

download Скачать торрент-файл   magnet Магнитная ссылка Размер: 11.70 GB Раздают: 1 Качают: 19 Добавлен: 2024-06-28 17:00
Пиры будут получены из сети DHT
Последний сидер был замечен сегодня в 19:12
Название: Фуриоса: Хроники Безумного Макса Оригинальное название: Furiosa: A Mad Max Saga Год выхода: 2024 Производство: Австралия, США / Warner Bros., Domain Entertainment, Kennedy Miller Mitchell Жанр: Фантастика, боевик, триллер, приключения Перевод: Профессиональный дублированный, профессиональный многоголосый Продолжительность: 02:28:11 Режиссёр: Джордж Миллер В ролях: Аня Тейлор-Джой, Крис Хемсворт, Том Бёрк, Алила Браун, Джордж Шевцов, Лейчи Халм, Джон Ховард, Энгус Сэмпсон, Чарли Фрейзер, Эльза Патаки Описание: История похищения юной воительницы Фуриосы из Зелёных Земель, в результате которого девушка попадает в руки орды байкеров под предводительством Военачальника Дементуса. Пробираясь через Пустошь, они натыкаются на Цитадель, которой управляет Бессмертный Джо, и пока два тирана борются за господство, Фуриосе предстоит пережить множество испытаний, пытаясь найти путь домой. Формат: MKV Качество: WEB-DL 1080p | AMAZON Видео: MPEG4 AVC / ~9126 kbps / 1920x800 / 0.248 Бит/(Пиксели*Кадры) / 23.976 fps Аудио 01: AC-3, 6 ch, 448 kbps | Русский, DUB | Movie Dubbing | Аудио 02: AC-3, 2 ch, 384 kbps | Русский, MVO | HDrezka Studio | Аудио 03: AC-3, 2 ch, 192 kbps | Русский, MVO | Jaskier | Аудио 04: E-AC-3, 6 ch, 384 kbps | Украинский, DUB | Postmodern | Аудио 05: E-AC-3 JOC, 6 ch, 768 kbps | Английский | Субтитры: Русские (Forced, Full), украинские (Forced), английские (Full, SDH) и другие
[+] MediainfoGeneral Unique ID : 245890126356651679702339512722175279440 (0xB8FCB73A9A1482F446CF62D6AB93C150) Complete name : Furiosa.A.Mad.Max.Saga.2024.AMZN.WEB-DL.H.264-EniaHD.mkv Format : Matroska Format version : Version 4 File size : 11.7 GiB Duration : 2 h 28 min Overall bit rate : 11.3 Mb/s Frame rate : 23.976 FPS Movie name : Furiosa: A Mad Max Saga (2024) - EniaHD Writing application : mkvmerge v57.0.0 ('Till The End') 64-bit Writing library : libebml v1.4.2 + libmatroska v1.6.4 Video ID : 1 Format : AVC Format/Info : Advanced Video Codec Format profile : High@L4 Format settings : CABAC / 4 Ref Frames Format settings, CABAC : Yes Format settings, Reference fra : 4 frames Codec ID : V_MPEG4/ISO/AVC Duration : 2 h 28 min Bit rate mode : Constant Bit rate : 9 126 kb/s Nominal bit rate : 10 000 kb/s Width : 1 920 pixels Height : 800 pixels Display aspect ratio : 2.40:1 Frame rate mode : Constant Frame rate : 23.976 (24000/1001) FPS Color space : YUV Chroma subsampling : 4:2:0 Bit depth : 8 bits Scan type : Progressive Bits/(Pixel*Frame) : 0.248 Stream size : 9.45 GiB (81%) Default : Yes Forced : No Color range : Limited Color primaries : BT.709 Transfer characteristics : BT.709 Matrix coefficients : BT.709 Audio #1 ID : 2 Format : AC-3 Format/Info : Audio Coding 3 Commercial name : Dolby Digital Codec ID : A_AC3 Duration : 2 h 28 min Bit rate mode : Constant Bit rate : 448 kb/s Channel(s) : 6 channels Channel layout : L R C LFE Ls Rs Sampling rate : 48.0 kHz Frame rate : 31.250 FPS (1536 SPF) Compression mode : Lossy Stream size : 475 MiB (4%) Title : Movie Dubbing Language : Russian Service kind : Complete Main Default : Yes Forced : No Audio #2 ID : 3 Format : AC-3 Format/Info : Audio Coding 3 Commercial name : Dolby Digital Codec ID : A_AC3 Duration : 2 h 28 min Bit rate mode : Constant Bit rate : 384 kb/s Channel(s) : 2 channels Channel layout : L R Sampling rate : 48.0 kHz Frame rate : 31.250 FPS (1536 SPF) Compression mode : Lossy Stream size : 407 MiB (3%) Title : HDrezka Studio Language : Russian Service kind : Complete Main Default : No Forced : No Audio #3 ID : 4 Format : AAC LC Format/Info : Advanced Audio Codec Low Complexity Codec ID : A_AAC-2 Duration : 2 h 28 min Bit rate : 192 kb/s Channel(s) : 2 channels Channel layout : L R Sampling rate : 48.0 kHz Frame rate : 46.875 FPS (1024 SPF) Compression mode : Lossy Stream size : 201 MiB (2%) Title : Jaskier Language : Russian Default : No Forced : No Audio #4 ID : 5 Format : E-AC-3 Format/Info : Enhanced AC-3 Commercial name : Dolby Digital Plus Codec ID : A_EAC3 Duration : 2 h 28 min Bit rate mode : Constant Bit rate : 384 kb/s Channel(s) : 6 channels Channel layout : L R C LFE Ls Rs Sampling rate : 48.0 kHz Frame rate : 31.250 FPS (1536 SPF) Compression mode : Lossy Stream size : 407 MiB (3%) Title : Postmodern Language : Ukrainian Service kind : Complete Main Default : No Forced : No Audio #5 ID : 6 Format : E-AC-3 JOC Format/Info : Enhanced AC-3 with Joint Object Coding Commercial name : Dolby Digital Plus with Dolby Atmos Codec ID : A_EAC3 Duration : 2 h 28 min Bit rate mode : Constant Bit rate : 768 kb/s Channel(s) : 6 channels Channel layout : L R C LFE Ls Rs Sampling rate : 48.0 kHz Frame rate : 31.250 FPS (1536 SPF) Compression mode : Lossy Stream size : 814 MiB (7%) Title : English Language : English Service kind : Complete Main Default : No Forced : No Complexity index : 16 Number of dynamic objects : 15 Bed channel count : 1 channel Bed channel configuration : LFE Text #1 ID : 7 Format : UTF-8 Codec ID : S_TEXT/UTF8 Codec ID/Info : UTF-8 Plain Text Duration : 2 h 27 min Bit rate : 0 b/s Frame rate : 0.001 FPS Count of elements : 12 Stream size : 516 Bytes (0%) Title : Russian (Forced) Language : Russian Default : Yes Forced : No Text #2 ID : 8 Format : UTF-8 Codec ID : S_TEXT/UTF8 Codec ID/Info : UTF-8 Plain Text Duration : 2 h 27 min Bit rate : 40 b/s Frame rate : 0.112 FPS Count of elements : 989 Stream size : 43.7 KiB (0%) Title : Russian (iTunes) Language : Russian Default : No Forced : No Text #3 ID : 9 Format : UTF-8 Codec ID : S_TEXT/UTF8 Codec ID/Info : UTF-8 Plain Text Duration : 2 h 17 min Bit rate : 45 b/s Frame rate : 0.128 FPS Count of elements : 1054 Stream size : 45.9 KiB (0%) Title : Russian (FOCS) Language : Russian Default : No Forced : No Text #4 ID : 10 Format : UTF-8 Codec ID : S_TEXT/UTF8 Codec ID/Info : UTF-8 Plain Text Duration : 2 h 17 min Bit rate : 36 b/s Frame rate : 0.170 FPS Count of elements : 1401 Stream size : 36.8 KiB (0%) Title : English (SDH) Language : English Default : No Forced : No Text #5 ID : 11 Format : UTF-8 Codec ID : S_TEXT/UTF8 Codec ID/Info : UTF-8 Plain Text Duration : 2 h 27 min Bit rate : 35 b/s Frame rate : 0.109 FPS Count of elements : 967 Stream size : 38.9 KiB (0%) Title : Arabic Language : Arabic Default : No Forced : No Text #6 ID : 12 Format : UTF-8 Codec ID : S_TEXT/UTF8 Codec ID/Info : UTF-8 Plain Text Duration : 2 h 27 min Bit rate : 39 b/s Frame rate : 0.109 FPS Count of elements : 966 Stream size : 42.8 KiB (0%) Title : Bulgarian Language : Bulgarian Default : No Forced : No Text #7 ID : 13 Format : UTF-8 Codec ID : S_TEXT/UTF8 Codec ID/Info : UTF-8 Plain Text Duration : 2 h 27 min Bit rate : 24 b/s Frame rate : 0.109 FPS Count of elements : 969 Stream size : 26.5 KiB (0%) Title : Chinese Language : Chinese Default : No Forced : No Text #8 ID : 14 Format : UTF-8 Codec ID : S_TEXT/UTF8 Codec ID/Info : UTF-8 Plain Text Duration : 2 h 27 min Bit rate : 25 b/s Frame rate : 0.118 FPS Count of elements : 1043 Stream size : 27.2 KiB (0%) Title : French Language : French Default : No Forced : No Text #9 ID : 15 Format : UTF-8 Codec ID : S_TEXT/UTF8 Codec ID/Info : UTF-8 Plain Text Duration : 2 h 27 min Bit rate : 35 b/s Frame rate : 0.133 FPS Count of elements : 1179 Stream size : 38.7 KiB (0%) Title : German (SDH) Language : German Default : No Forced : No Text #10 ID : 16 Format : UTF-8 Codec ID : S_TEXT/UTF8 Codec ID/Info : UTF-8 Plain Text Duration : 2 h 27 min Bit rate : 34 b/s Frame rate : 0.109 FPS Count of elements : 963 Stream size : 37.6 KiB (0%) Title : Hebrew Language : Hebrew Default : No Forced : No Text #11 ID : 17 Format : UTF-8 Codec ID : S_TEXT/UTF8 Codec ID/Info : UTF-8 Plain Text Duration : 2 h 27 min Bit rate : 26 b/s Frame rate : 0.110 FPS Count of elements : 973 Stream size : 29.0 KiB (0%) Title : Portuguese Language : Portuguese (BR) Default : No Forced : No Text #12 ID : 18 Format : UTF-8 Codec ID : S_TEXT/UTF8 Codec ID/Info : UTF-8 Plain Text Duration : 2 h 27 min Bit rate : 25 b/s Frame rate : 0.109 FPS Count of elements : 970 Stream size : 28.0 KiB (0%) Title : Spanish Language : Spanish (Latin America) Default : No Forced : No Text #13 ID : 19 Format : UTF-8 Codec ID : S_TEXT/UTF8 Codec ID/Info : UTF-8 Plain Text Duration : 2 h 0 min Bit rate : 0 b/s Frame rate : 0.001 FPS Count of elements : 10 Stream size : 407 Bytes (0%) Title : Ukrainian (Forced) Language : Ukrainian Default : No Forced : No Menu 00:00:00.000 : en:Chapter 01 00:10:19.369 : en:Chapter 02 00:20:10.627 : en:Chapter 03 00:29:00.240 : en:Chapter 04 00:40:06.656 : en:Chapter 05 00:53:12.692 : en:Chapter 06 01:00:35.635 : en:Chapter 07 01:19:05.745 : en:Chapter 08 01:28:55.919 : en:Chapter 09 01:40:17.684 : en:Chapter 10 01:49:44.751 : en:Chapter 11 01:59:16.906 : en:Chapter 12 02:06:08.693 : en:Chapter 13 02:17:44.681 : en:Chapter 14
[+] Скриншоты

Всего файлов в раздаче: 1 
Furiosa.A.Mad.Max.Saga.2024.AMZN.WEB-DL.H.264-EniaHD.mkv11.70 GB

Похожие раздачи по запросу - Фуриоса
Вчера magnet Фуриоса: Хроники Безумного Макса / Фуріоза: Шалений Макс. Сага / Furiosa: A Mad Max Saga (2024) WEB-DL-HEVC 2160p | 4K | SDR | D | UKR 26.45 GB ↑ 0 ↓ 4
2024-07-06 magnet Фуриоса: Хроники Безумного Макса / Furiosa: A Mad Max Saga (2024) UHD WEB-DL 2160p | 4K | HDR | Dolby Vision Profile 8 | D, P, A 31.04 GB ↑ 1 ↓ 14
2024-07-03 magnet Фуриоса: Хроники Безумного Макса / Furiosa: A Mad Max Saga (2024) WEB-DLRip-AVC | КПК | D, P | Red Head Sound, HDrezka Studio 805.80 MB ↑ 0 ↓ 1
2024-07-03 magnet Фуриоса: Хроники Безумного Макса / Furiosa: A Mad Max Saga [2024, фантастика, боевик, WEB-DLRip-AVC] Dub 2.18 GB ↑ 0 ↓ 0
2024-07-01 magnet Фуриоса: Хроники Безумного Макса / Furiosa: A Mad Max Saga (2024) WEB-DLRip 1080p | D, P, A | Movie Dubbing, RHS, LostFilm, HDrezka, Jaskier, TVShows, Яроцкий 22.53 GB ↑ 0 ↓ 4
2024-06-30 magnet Фуриоса: Хроники Безумного Макса / Furiosa: A Mad Max Saga (2024) WEB-DLRip от DoMiNo & селезень | D | Red Head Sound 1.47 GB ↑ 0 ↓ 1
2024-06-30 magnet Фуриоса: Хроники Безумного Макса / Furiosa: A Mad Max Saga (2024) UHD WEB-DL HEVC 2160p | 4K | Dolby Vision TV | D | Movie Dubbing, Red Head Sound 27.00 GB ↑ 1 ↓ 1

Комментарии


Зарегистрируйтесь чтобы добавить комментарий
Торрент клиент
byTorrent - программа для загрузки торрент-файлов.

Скачать byTorrent.exe (1,5 МБ)

Скачать byTorrent.zip (0,6 МБ)

Поддержи torrent.by
российских рублей
(300 российских рублей это 4$)

Обратная связь rss

End game ©