↑↓torrent.by
Поиск
Логин:  Регистрация
Пароль:

Фуриоса: Хроники Безумного Макса / Furiosa: A Mad Max Saga (2024) WEB-DLRip-AVC от ExKinoRay | D | Movie Dubbing

download Скачать торрент-файл   magnet Магнитная ссылка Размер: 1.08 GB Раздают: 0 Качают: 1 Добавлен: 2024-06-29 05:00
Пиры будут получены из сети DHT
Последний сидер был замечен 2024-06-29 22:47
Информация о фильме Название: Фуриоса: Хроники Безумного Макса Оригинальное название: Furiosa: A Mad Max Saga Год выпуска: 2024 Жанр: Фантастика, боевик Режиссер: Джордж Миллер В ролях: Аня Тейлор-Джой, Крис Хемсворт, Том Бёрк, Чарли Фрейзер, Алайла Браун, Лейчи Халм, Джош Хелман, Джейкоб Томури, Энгус Сэмпсон, Натан Джоунс, Эльза Патаки, Дэвид Филд, Ричард Нортон, Дэниел Уэббер, Шиа Адамс, Анна Адамс, Самарт Каймлия, Кагга Джейсон, Гай Спенс, Ян Робертс, Брайан Пробетс, Горан Ди Клюе, Дэвид Колинз, Раэл Роман, Роберт МакФарлейн, Алекс Тайм, Флоранс Меццара, Коди Райли, Йе Чжоу, Мэтт де Соуза, Шакрия Тариньяват, Малика Гасбарри, Нат Бьюкенен, Джордж Шевцов, Джон Говард О фильме: Приквел фильма «Безумный Макс: Дорога ярости». О молодости бесстрашной воительницы Фуриосы. История похищения юной воительницы Фуриосы из Зелёных Земель, в результате которого девушка попадает в руки орды байкеров под предводительством Военачальника Дементуса. Пробираясь через Пустошь, они натыкаются на Цитадель, которой управляет Бессмертный Джо, и пока два тирана борются за господство, Фуриосе предстоит пережить множество испытаний, пытаясь найти путь домой. Страна: Австралия, США Студия: Warner Bros., Kennedy Miller Mitchell Продолжительность: 02:28:11 Перевод: Профессиональный дублированный | Movie Dubbing Файл Формат: MKV Качество: WEB-DLRip-AVC Видео: MPEG-4 AVC, 764x320, 954 Кбит/с Аудио: AAC-HE, 2 ch, 84 Кбит/с Субтитры: Русские (Forced, 2xFull)
[+] MIОбщее Уникальный идентификатор : 262213919926264490643247979380228493429 (0xC5449063C0DA02BD3A5D50E33C901075) Полное имя : D:MOVIESFuriosa.A.Mad.Max.Saga.2024.DUB.WEB-DLRip-AVC.ExKinoRay.mkv Формат : Matroska Версия формата : Version 4 Размер файла : 1,08 Гбайт Продолжительность : 2 ч. 28 мин. Общий битрейт : 1 038 Кбит/сек Частота кадров : 23,976 кадра/сек Дата кодирования : 2024-06-28 16:11:41 UTC Программа кодирования : mkvmerge v45.0.0 ('Heaven in Pennies') 64-bit Библиотека кодирования : libebml v1.3.10 + libmatroska v1.5.2 Видео Идентификатор : 1 Формат : AVC Формат/Информация : Advanced Video Codec Профиль формата : High@L4.1 Настройки формата : CABAC / 11 Ref Frames Параметр CABAC формата : Да Параметр RefFrames формата : 11 кадров Идентификатор кодека : V_MPEG4/ISO/AVC Продолжительность : 2 ч. 28 мин. Битрейт : 954 Кбит/сек Ширина : 764 пикселя Высота : 320 пикселей Соотношение сторон дисплея : 2,39:1 Режим частоты кадров : Постоянный Частота кадров : 23,976 (24000/1001) кадра/сек Цветовое пространство : YUV Цветовая субдискретизация : 4:2:0 Битовая глубина : 8 бит Тип развёртки : Прогрессивная Бит/(Пиксели*Кадры) : 0.163 Размер потока : 1 011 Мбайт (92%) Библиотека кодирования : x264 core 164 r3190 7ed753b Параметры библиотеки кодирования : cabac=1 / ref=11 / deblock=1:-1:-1 / analyse=0x3:0x133 / me=umh / subme=10 / psy=1 / psy_rd=1.05:0.10 / mixed_ref=1 / me_range=32 / chroma_me=1 / trellis=2 / 8x8dct=1 / cqm=0 / deadzone=21,11 / fast_pskip=0 / chroma_qp_offset=-3 / threads=6 / lookahead_threads=1 / sliced_threads=0 / nr=0 / decimate=0 / interlaced=0 / bluray_compat=0 / constrained_intra=0 / bframes=11 / b_pyramid=2 / b_adapt=2 / b_bias=0 / direct=3 / weightb=1 / open_gop=0 / weightp=2 / keyint=240 / keyint_min=23 / scenecut=40 / intra_refresh=0 / rc=2pass / mbtree=0 / bitrate=954 / ratetol=1.0 / qcomp=0.60 / qpmin=0 / qpmax=69 / qpstep=4 / cplxblur=20.0 / qblur=0.5 / ip_ratio=1.40 / pb_ratio=1.30 / aq=3:1.00 Язык : Английский По умолчанию : Да Принудительно : Нет Цветовой диапазон : Limited Основные цвета : BT.709 Характеристики трансфера : BT.709 Коэффициенты матрицы : BT.709 Аудио Идентификатор : 2 Формат : AAC LC SBR Формат/Информация : Advanced Audio Codec Low Complexity with Spectral Band Replication Коммерческое название : HE-AAC Настройки формата : Explicit Идентификатор кодека : A_AAC-2 Продолжительность : 2 ч. 28 мин. Битрейт : 84,0 Кбит/сек Канал(-ы) : 2 канала Расположение каналов : L R Частота дискретизации : 48,0 КГц Частота кадров : 23,438 кадра/сек (2048 SPF) Метод сжатия : С потерями Задержка видео : 31 мс. Размер потока : 89,1 Мбайт (8%) Язык : Русский По умолчанию : Да Принудительно : Нет Текст #1 Идентификатор : 3 Формат : UTF-8 Идентификатор кодека : S_TEXT/UTF8 Идентификатор кодека/Информация : UTF-8 Plain Text Продолжительность : 2 ч. 0 мин. Битрейт : 0 бит/сек Частота кадров : 0,002 кадр/сек Число элементов : 11 Размер потока : 454 байта (0%) Заголовок : Forced Язык : Русский По умолчанию : Да Принудительно : Нет Текст #2 Идентификатор : 4 Формат : UTF-8 Идентификатор кодека : S_TEXT/UTF8 Идентификатор кодека/Информация : UTF-8 Plain Text Продолжительность : 2 ч. 27 мин. Битрейт : 40 бит/сек Частота кадров : 0,112 кадр/сек Число элементов : 989 Размер потока : 43,7 КиБ (0%) Заголовок : iTunes Язык : Русский По умолчанию : Нет Принудительно : Нет Текст #3 Идентификатор : 5 Формат : UTF-8 Идентификатор кодека : S_TEXT/UTF8 Идентификатор кодека/Информация : UTF-8 Plain Text Продолжительность : 2 ч. 17 мин. Битрейт : 45 бит/сек Частота кадров : 0,127 кадр/сек Число элементов : 1052 Размер потока : 45,9 КиБ (0%) Заголовок : Full -FOCS Язык : Русский По умолчанию : Нет Принудительно : Нет Меню 00:00:00.000 : en:Chapter 01 00:10:19.369 : en:Chapter 02 00:20:10.627 : en:Chapter 03 00:29:00.240 : en:Chapter 04 00:40:06.656 : en:Chapter 05 00:53:12.692 : en:Chapter 06 01:00:35.635 : en:Chapter 07 01:19:05.745 : en:Chapter 08 01:28:55.919 : en:Chapter 09 01:40:17.684 : en:Chapter 10 01:49:44.751 : en:Chapter 11 01:59:16.906 : en:Chapter 12 02:06:08.693 : en:Chapter 13 02:17:44.681 : en:Chapter 14
[+] Скриншоты

Всего файлов в раздаче: 1 
Furiosa.A.Mad.Max.Saga.2024.DUB.WEB-DLRip-AVC.ExKinoRay.mkv1.08 GB

Похожие раздачи по запросу - Фуриоса
2024-07-15 magnet Фуриоса: Хроники Безумного Макса / Фуріоза: Шалений Макс. Сага / Furiosa: A Mad Max Saga (2024) WEB-DL-HEVC 2160p | 4K | SDR | D | UKR 26.45 GB ↑ 0 ↓ 1
2024-07-06 magnet Фуриоса: Хроники Безумного Макса / Furiosa: A Mad Max Saga (2024) UHD WEB-DL 2160p | 4K | HDR | Dolby Vision Profile 8 | D, P, A 31.04 GB ↑ 2 ↓ 6
2024-07-03 magnet Фуриоса: Хроники Безумного Макса / Furiosa: A Mad Max Saga (2024) WEB-DLRip-AVC | КПК | D, P | Red Head Sound, HDrezka Studio 805.80 MB ↑ 0 ↓ 1
2024-07-03 magnet Фуриоса: Хроники Безумного Макса / Furiosa: A Mad Max Saga [2024, фантастика, боевик, WEB-DLRip-AVC] Dub 2.18 GB ↑ 1 ↓ 0
2024-07-01 magnet Фуриоса: Хроники Безумного Макса / Furiosa: A Mad Max Saga (2024) WEB-DLRip 1080p | D, P, A | Movie Dubbing, RHS, LostFilm, HDrezka, Jaskier, TVShows, Яроцкий 22.53 GB ↑ 1 ↓ 2
2024-06-30 magnet Фуриоса: Хроники Безумного Макса / Furiosa: A Mad Max Saga (2024) WEB-DLRip от DoMiNo & селезень | D | Red Head Sound 1.47 GB ↑ 0 ↓ 1
2024-06-30 magnet Фуриоса: Хроники Безумного Макса / Furiosa: A Mad Max Saga (2024) UHD WEB-DL HEVC 2160p | 4K | Dolby Vision TV | D | Movie Dubbing, Red Head Sound 27.00 GB ↑ 0 ↓ 0

Комментарии


Зарегистрируйтесь чтобы добавить комментарий
Торрент клиент
byTorrent - программа для загрузки торрент-файлов.

Скачать byTorrent.exe (1,5 МБ)

Скачать byTorrent.zip (0,6 МБ)

Поддержи torrent.by
российских рублей
(300 российских рублей это 4$)

Обратная связь rss

End game ©