↑↓torrent.by
Поиск
Логин:  Регистрация
Пароль:

Тёмная материя / Dark Matter [S01] (2024) WEB-DL 1080p | P | Red Head Sound

download Скачать торрент-файл   magnet Магнитная ссылка Размер: 34.20 GB Добавлен: 2024-06-29 05:00
Пиры будут получены из сети DHT
Последний сидер был замечен 2024-07-09 00:31
Название: Тёмная материя Оригинальное название: Dark Matter Год выхода: 2024 Жанр: Фантастика, триллер, драма Режиссер: Якоб Вербрюгген, Роксанн Доусон, Логан Джордж В ролях: Джоэл Эдгертон, Дженнифер Коннелли, Оукс Фегли, Алиси Брага, Джимми Симпсон, Дайо Окенийи, Аманда Бругел, Джимми Стикс и др. Описание сериала: Экранизация одноименной книги Блейка Крауча. В результате похищения Джейсон Дессен попадает в альтернативную версию своей судьбы. Он отправляется в ужасное путешествие, чтобы вернуться к своей настоящей семье и спасти их от самого жуткого врага, которого только можно представить, — самого себя. Страна: США Студия: Matt Tolmach Productions, Sony Pictures Television Продолжительность: ~0:47:00 Перевод: Профессиональный (многоголосый, закадровый) Red Head Sound Файл Формат: MKV Качество: WEB-DL (1080p) Видео: 1920x960 (2,000), 23,976 fps, AVC (х264), High@L4, ~10,0 Mbps avg, 0.227 bit/pixel Аудио RUS: 48 kHz, AC3, 2/0 (L, R) ch, ~192 kbps avg
[+] MediaInfoОбщее Уникальный идентификатор : 114409248125872909893383208664694279818 (0x56126B70ACFAE319F26330B823E84E8A) Полное имя : Dark Matter.2024.S01E01.WEB-DL.1080p.ATVP.RHS.mkv Формат : Matroska Версия формата : Version 4 Размер файла : 3,30 Гбайт Продолжительность : 46 мин. 15 с. Общий битрейт : 10,2 Мбит/сек Частота кадров : 23,976 кадра/сек Дата кодирования : 2024-06-01 00:05:51 UTC Программа кодирования : mkvmerge v68.0.0 ('The Curtain') 64-bit Библиотека кодирования : libebml v1.4.2 + libmatroska v1.6.4 Видео Идентификатор : 1 Формат : AVC Формат/Информация : Advanced Video Codec Профиль формата : High@L4 Настройки формата : CABAC / 4 Ref Frames Параметр CABAC формата : Да Параметр RefFrames формата : 4 кадра Параметр формата, количество фрагментов : 8 фрагментов на кадр Идентификатор кодека : V_MPEG4/ISO/AVC Продолжительность : 46 мин. 15 с. Битрейт : 10,0 Мбит/сек Ширина : 1 920 пикселей Высота : 960 пикселей Соотношение сторон дисплея : 2,000 Режим частоты кадров : Постоянный Частота кадров : 23,976 (24000/1001) кадра/сек Цветовое пространство : YUV Цветовая субдискретизация : 4:2:0 Битовая глубина : 8 бит Тип развёртки : Прогрессивная Бит/(Пиксели*Кадры) : 0.227 Размер потока : 3,24 Гбайт (98%) Язык : Английский По умолчанию : Да Принудительно : Нет Цветовой диапазон : Limited Основные цвета : BT.709 Характеристики трансфера : BT.709 Коэффициенты матрицы : BT.709 Аудио Идентификатор : 2 Формат : AC-3 Формат/Информация : Audio Coding 3 Коммерческое название : Dolby Digital Идентификатор кодека : A_AC3 Продолжительность : 46 мин. 15 с. Вид битрейта : Постоянный Битрейт : 192 Кбит/сек Канал(-ы) : 2 канала Расположение каналов : L R Частота дискретизации : 48,0 КГц Частота кадров : 31,250 кадров/сек (1536 SPF) Метод сжатия : С потерями Размер потока : 63,5 Мбайт (2%) Язык : Русский По умолчанию : Да Принудительно : Нет Нормализация звука речи : -31 dB dialnorm_Average : -31 dB dialnorm_Minimum : -31 dB dialnorm_Maximum : -31 dB Меню 00:00:00.000 : en:Studio Logo 00:00:08.843 : en:Main 00:45:10.833 : en:Credits
[+] Скриншоты

Всего файлов в раздаче: 9 
Dark Matter.2024.S01E01.WEB-DL.1080p.ATVP.RHS.mkv3.30 GB
Dark Matter.2024.S01E02.WEB-DL.1080p.ATVP.RHS.mkv3.85 GB
Dark Matter.2024.S01E03.WEB-DL.1080p.ATVP.RHS.mkv3.55 GB
Dark Matter.2024.S01E04.WEB-DL.1080p.ATVP.RHS.mkv4.31 GB
Dark Matter.2024.S01E05.WEB-DL.1080p.ATVP.RHS.mkv3.98 GB
Dark Matter.2024.S01E06.WEB-DL.1080p.ATVP.RHS.mkv3.94 GB
Dark Matter.2024.S01E07.WEB-DL.1080p.ATVP.RHS.mkv3.67 GB
Dark Matter.2024.S01E08.WEB-DL.1080p.ATVP.RHS.mkv3.37 GB
Dark Matter.2024.S01E09.WEB-DL.1080p.ATVP.RHS.mkv4.21 GB

Похожие раздачи по запросу - Тёмная
2024-07-05 magnet Тёмная материя / Dark Matter [S01] (2024) WEB-DL 720p | P 27.41 GB ↑ 0 ↓ 3
2024-07-03 magnet Тёмная материя / Dark Matter [S01] (2024) WEB-DLRip-AVC | КПК | Jaskier 2.21 GB ↑ 0 ↓ 0
2024-07-03 magnet Темная половина / The Dark Half (1993) HDTV 1080i от HDClub 7.71 GB ↑ 0 ↓ 0
2024-07-03 magnet Темная половина / The Dark Half (1993) BDRip от HQCLUB 2.67 GB ↑ 0 ↓ 0
2024-07-02 magnet Тёмная материя / Dark Matter [S01] (2024) UHD WEB-DL 2160p | 4K | HDR | Dolby Vision Profile 8 | P 98.97 GB ↑ 0 ↓ 1
2024-07-02 magnet Тёмная материя / Dark Matter [S01] (2024) WEB-DL 720p | P 27.09 GB ↑ 0 ↓ 0
2024-07-02 magnet Тёмная материя / Dark Matter [S01] (2024) WEB-DL 1080p | HDrezka Studio, LostFilm, NewComers, TVShows, Red Head Sound 42.65 GB ↑ 0 ↓ 6

Комментарии


Зарегистрируйтесь чтобы добавить комментарий
Торрент клиент
byTorrent - программа для загрузки торрент-файлов.

Скачать byTorrent.exe (1,5 МБ)

Скачать byTorrent.zip (0,6 МБ)

Поддержи torrent.by
российских рублей
(300 российских рублей это 4$)

Обратная связь rss

End game ©